<?xml version="1.0" standalone="no"?>
<!DOCTYPE svg PUBLIC "-//W3C//DTD SVG 1.1//EN" "http://www.w3.org/Graphics/SVG/1.1/DTD/svg11.dtd" >
<svg xmlns="http://www.w3.org/2000/svg">
<metadata></metadata>
<defs>
<font id="oxygenitalic" horiz-adv-x="1300" >
<font-face units-per-em="2048" ascent="1638" descent="-410" />
<missing-glyph horiz-adv-x="393" />
<glyph horiz-adv-x="2048" />
<glyph horiz-adv-x="2048" />
<glyph unicode="&#xd;" horiz-adv-x="290" />
<glyph unicode=" "  horiz-adv-x="393" />
<glyph unicode="&#x09;" horiz-adv-x="393" />
<glyph unicode="&#xa0;" horiz-adv-x="393" />
<glyph unicode="!" horiz-adv-x="552" d="M170 121q6 53 46.5 92t100.5 39q61 0 88.5 -38.5t20.5 -92.5t-45.5 -93.5t-99.5 -39.5q-60 0 -88.5 39.5t-22.5 93.5zM307 434l70 920l18 141h191l-21 -141l-182 -920h-76z" />
<glyph unicode="&#x22;" horiz-adv-x="673" d="M297 1016l49 493h146l-99 -493h-96zM571 1016l50 493h145l-98 -493h-97z" />
<glyph unicode="#" horiz-adv-x="1069" d="M145 410l27 127h172l115 393h-168l24 125h185l133 407h147l-133 -407h223l123 407h123l-121 -407h131l-30 -123h-140l-118 -395h139l-27 -127h-147l-141 -433h-146l141 433h-223l-135 -433h-125l131 433h-160zM473 537h227l129 395h-223z" />
<glyph unicode="$" horiz-adv-x="1239" d="M104 100l70 144q178 -100 383 -113l82 582l-127 37q-304 83 -264 360q27 195 159.5 297.5t346.5 116.5l24 170h90l-24 -168q117 -3 217 -33t164 -76l-70 -139q-54 34 -145 62t-187 32l-71 -508l102 -26q162 -42 236 -137t49 -269q-30 -217 -164.5 -330t-345.5 -122 l-25 -175h-92l25 175q-146 5 -258 40t-175 80zM422 1120q-12 -85 33 -136.5t145 -78.5l64 -18l67 483q-275 -21 -309 -250zM649 129q276 15 318 297q13 97 -27.5 156.5t-161.5 93.5l-51 12z" />
<glyph unicode="%" horiz-adv-x="1761" d="M254 1104q24 167 120.5 276t231.5 109q136 0 204 -108.5t44 -276.5q-24 -164 -121 -270.5t-233 -106.5t-203 106.5t-43 270.5zM377 1104q-16 -115 19 -187.5t120 -72.5t141 74.5t72 185.5q16 115 -19.5 194.5t-117.5 79.5q-84 0 -141.5 -80t-73.5 -194zM379 -4l952 1466 h152l-977 -1466h-127zM1067 369q24 169 126 277t257 108q158 0 230.5 -107t48.5 -278q-24 -168 -127 -275.5t-259 -107.5q-157 0 -228.5 107.5t-47.5 275.5zM1188 369q-16 -115 29 -193t143 -78q99 0 165.5 79t82.5 192q10 74 -5 134.5t-58 98t-109 37.5q-99 0 -165.5 -78.5 t-82.5 -191.5z" />
<glyph unicode="&#x26;" horiz-adv-x="1390" d="M156 395q22 154 119.5 259t265.5 186q-74 99 -102.5 167t-16.5 158q22 150 133 237t279 87q74 0 136.5 -19.5t108.5 -56t67.5 -96.5t10.5 -135q-9 -64 -41 -120t-84.5 -102t-112 -83t-135.5 -72l318 -430q89 86 164 223l100 -90q-77 -138 -182 -252l137 -215 q-86 -31 -154 -51l-104 153q-217 -166 -477 -166q-240 0 -349 111t-81 307zM328 406q-19 -128 57 -201.5t231 -73.5q189 0 355 127l-348 467q-129 -65 -205 -140.5t-90 -178.5zM600 1165q-10 -67 17 -123.5t88 -132.5q48 24 79 41.5t69 43.5t60.5 50t40.5 57t23 70 q11 84 -36.5 129.5t-125.5 45.5q-86 0 -144.5 -48t-70.5 -133z" />
<glyph unicode="'" horiz-adv-x="370" d="M281 1016l49 493h147l-96 -493h-100z" />
<glyph unicode="(" horiz-adv-x="575" d="M209 637q61 427 356 872h137q-270 -418 -333 -868q-30 -216 -4.5 -441t98.5 -417h-137q-80 192 -114 414t-3 440z" />
<glyph unicode=")" horiz-adv-x="573" d="M59 -217q125 190 213 417t119 441q62 446 -90 868h137q172 -455 113 -872q-31 -218 -127 -438.5t-231 -415.5h-134z" />
<glyph unicode="*" horiz-adv-x="1005" d="M240 1094l88 159l272 -190l31 426h166l-86 -426l323 190l47 -159l-348 -136q132 -229 191 -342q-24 -18 -70 -47.5t-70 -46.5l-157 365l-252 -365l-115 94l285 342z" />
<glyph unicode="+" horiz-adv-x="1005" d="M170 512l18 133h359l59 420h123l-57 -420h342l-19 -133h-344l-61 -432h-125l59 432h-354z" />
<glyph unicode="," horiz-adv-x="479" d="M88 -293l92 522h205l-195 -522h-102z" />
<glyph unicode="-" horiz-adv-x="653" d="M160 520l18 144h488l-21 -144h-485z" />
<glyph unicode="." horiz-adv-x="468" d="M139 121q6 53 46.5 92t101.5 39t88 -38.5t20 -92.5t-45.5 -93.5t-99.5 -39.5q-60 0 -88.5 39.5t-22.5 93.5z" />
<glyph unicode="/" horiz-adv-x="884" d="M16 -217l867 1683h135l-866 -1683h-136z" />
<glyph unicode="0" horiz-adv-x="1165" d="M195.5 446q-10.5 142 15.5 306q25 174 74.5 315t122.5 244t173.5 159t221.5 56t206 -56.5t127.5 -158.5t53.5 -244.5t-16 -314.5q-23 -169 -70.5 -307t-118.5 -244t-173.5 -165t-227.5 -59t-211 59.5t-126.5 163.5t-51 246zM384.5 434q12.5 -140 70 -222.5t151.5 -82.5 t173.5 82.5t132.5 223t79 323.5q22 181 10 317.5t-69.5 216.5t-151.5 80q-141 0 -244 -170t-141 -444q-23 -184 -10.5 -324z" />
<glyph unicode="1" horiz-adv-x="583" d="M205 1198l22 168q20 9 65.5 28t72 31t63.5 31.5t66 38.5h151l-211 -1495h-170l185 1311q-112 -70 -244 -113z" />
<glyph unicode="2" horiz-adv-x="1042" d="M109 0v164l563 573q206 209 229 361l2 10q17 125 -38 192.5t-173 67.5q-196 0 -325 -123l-33 150q148 131 395 131q191 0 289 -111.5t72 -296.5v-6q-20 -132 -98 -247.5t-226 -260.5l-457 -450h649l-30 -154h-819z" />
<glyph unicode="3" horiz-adv-x="1032" d="M115 92l71 148q115 -111 297 -111q139 0 232.5 74.5t113.5 208.5q11 78 -5 135t-51 90.5t-95.5 53t-123 26t-148.5 6.5l20 147q51 0 91 2t86 9t81 18.5t69.5 31t59 47t42 67t24.5 88.5q33 239 -222 239q-187 0 -325 -106l-33 145q154 115 418 115q79 0 147 -24.5 t118.5 -70.5t74 -117.5t10.5 -158.5q-20 -141 -98 -230.5t-203 -127.5q130 -31 192 -131.5t39 -255.5q-29 -197 -177 -315t-355 -118q-126 0 -218.5 34.5t-131.5 80.5z" />
<glyph unicode="4" horiz-adv-x="1132" d="M156 371l20 153l750 971h178l-137 -979h170l-33 -145h-158l-51 -371h-164l53 371h-628zM340 516h465l106 754z" />
<glyph unicode="5" horiz-adv-x="1105" d="M131 115l82 141q127 -117 305 -117q154 0 255.5 92.5t123.5 243.5q19 133 -45 217t-201 84q-140 0 -235 -98l-129 18l147 799h723l-37 -164h-571l-80 -471q119 74 240 74q138 0 227.5 -62t121.5 -163.5t13 -231.5q-33 -227 -188.5 -363.5t-390.5 -136.5q-120 0 -212.5 37 t-148.5 101z" />
<glyph unicode="6" horiz-adv-x="1132" d="M166 471q24 164 98 294t246 325q42 48 133.5 148t162.5 176l71 75h221l-586 -629q117 62 221 62q120 0 213 -60t139 -169t27 -244q-30 -204 -177.5 -338t-361.5 -134q-147 0 -247.5 67.5t-140 178.5t-19.5 248zM344 453q-13 -88 8.5 -160t82.5 -118t155 -46 q139 0 230.5 91t111.5 226q21 142 -46 233t-206 91q-148 0 -232 -88.5t-104 -228.5z" />
<glyph unicode="7" horiz-adv-x="978" d="M246 0l665 1341h-626l30 154h807l-18 -135l-688 -1360h-170z" />
<glyph unicode="8" horiz-adv-x="1110" d="M154 385q20 144 112.5 250t239.5 153q-121 47 -178 137.5t-37 223.5q26 177 159.5 277t325.5 100t296.5 -99.5t78.5 -277.5q-39 -262 -295 -361q122 -48 179.5 -153.5t37.5 -249.5q-27 -192 -171.5 -300t-342.5 -108q-128 0 -225 45.5t-147.5 139.5t-32.5 223zM324 397 q-17 -124 55 -196t201 -72t219.5 72t107.5 196q17 119 -50 196t-195 109q-138 -33 -230 -110t-108 -195zM461 1151q-34 -233 221 -297q267 62 301 297q14 103 -52.5 162t-174.5 59q-109 0 -195 -59.5t-100 -161.5z" />
<glyph unicode="9" horiz-adv-x="1099" d="M231 1053q30 204 180.5 338.5t364.5 134.5q147 0 246.5 -65t138.5 -173.5t19 -245.5q-21 -144 -83.5 -259.5t-199.5 -278.5q-48 -57 -159.5 -183t-199.5 -223l-87 -98h-211l594 657q-111 -59 -224 -59q-120 0 -213 55.5t-139 160.5t-27 239zM412 1057q-21 -140 47 -224.5 t209 -84.5q148 0 230.5 86.5t102.5 226.5q20 137 -40.5 224t-200.5 87t-234 -90.5t-114 -224.5z" />
<glyph unicode=":" horiz-adv-x="466" d="M137 -25l33 234h197l-33 -234h-197zM266 893l33 231h197l-33 -231h-197z" />
<glyph unicode=";" horiz-adv-x="487" d="M88 -309l125 506h174l-190 -506h-109zM291 893l33 231h198l-33 -231h-198z" />
<glyph unicode="&#x3c;" horiz-adv-x="1095" d="M176 547l12 94l963 508l-23 -168l-768 -385l656 -381l-23 -166z" />
<glyph unicode="=" horiz-adv-x="1196" d="M182 305l21 148h932l-23 -148h-930zM242 741l20 150h932l-20 -150h-932z" />
<glyph unicode="&#x3e;" horiz-adv-x="1099" d="M129 61l25 168l761 369l-651 399l25 162l815 -520l-14 -94z" />
<glyph unicode="?" horiz-adv-x="815" d="M244 121q6 53 45.5 92t99.5 39q61 0 89.5 -38.5t21.5 -92.5q-6 -53 -46.5 -93t-101.5 -40q-59 0 -87 39.5t-21 93.5zM270 1427q127 97 328 97q153 0 235.5 -85.5t61.5 -238.5q-11 -77 -42.5 -150t-79.5 -142.5t-98.5 -135t-115.5 -157.5t-115 -181h-84q9 64 48.5 147 t90.5 163t102 158t89.5 154t46.5 130q12 95 -37.5 140.5t-148.5 45.5q-130 0 -256 -80z" />
<glyph unicode="@" horiz-adv-x="1673" d="M199 721q23 166 104 315t197.5 256.5t267 170.5t307.5 63q120 0 225 -30.5t186 -90t136 -142t76 -191t4 -232.5q-14 -100 -54 -189t-94.5 -152.5t-119 -109.5t-129 -69t-123.5 -23q-72 0 -112 39t-40 119q-111 -140 -242 -140q-103 0 -156 85.5t-32 230.5 q14 100 49.5 189t90.5 161t136 114t177 42q112 0 270 -62q-14 -43 -45.5 -135t-47.5 -139.5t-36.5 -111t-31 -103t-13.5 -62.5q-14 -106 68 -106q46 0 103.5 33.5t110.5 89t94.5 136t53.5 165.5q36 259 -111 411t-413 152q-173 0 -332 -90t-267 -247.5t-134 -346.5 q-22 -155 8.5 -283.5t102 -213.5t176.5 -132t233 -47q264 0 444 139l53 -88q-98 -85 -232 -128.5t-286 -43.5q-155 0 -282 57t-211 159t-119 252.5t-10 328.5zM725 621q-11 -84 15.5 -131.5t88.5 -47.5q38 0 72 20t62.5 57.5t53 84t47.5 106.5t42 116.5t40 122.5l15 48 q-16 10 -54.5 16.5t-68.5 6.5q-56 0 -104 -23.5t-82 -62.5t-60.5 -91.5t-42.5 -107.5t-24 -114z" />
<glyph unicode="A" horiz-adv-x="1220" d="M6 0l729 1495h197l285 -1495h-173l-86 473h-552l-232 -473h-168zM477 610h445l-111 713z" />
<glyph unicode="B" horiz-adv-x="1210" d="M141 0l209 1495h412q264 -1 387 -87q101 -71 101 -212q0 -31 -5 -66q-16 -115 -79 -204.5t-171 -124.5q83 -20 135 -80q54 -60 70 -136q10 -44 9 -90q0 -34 -5 -69q-60 -426 -569 -426h-494zM332 139h291q185 0 286 70t123 219q4 31 4 58q0 99 -56 157q-72 74 -228 74 h-340zM430 850h330q55 0 98.5 9.5t88.5 34t75 76t41 126.5q5 30 5 56q0 31 -7 57q-12 47 -39 74.5t-76 43t-100.5 20.5t-126.5 5h-217z" />
<glyph unicode="C" horiz-adv-x="1204" d="M192 541q-2 30 -3 61q0 70 12 143q23 166 87.5 308.5t162.5 247.5t234 165t294 60q250 0 387 -137l-78 -136q-57 53 -140 86t-185 33q-123 0 -226.5 -51t-174.5 -138.5t-117 -199t-64 -238.5q-9 -81 -10 -158q0 -13 1 -27q2 -90 31 -168.5t77 -137t130 -92t189 -33.5 q190 0 350 123l33 -146q-152 -129 -420 -129q-107 0 -197.5 27.5t-155.5 77.5t-113.5 120t-72 155.5t-31.5 183.5z" />
<glyph unicode="D" horiz-adv-x="1417" d="M141 0l209 1495h350q83 0 156 -7t141.5 -22t126 -39t108.5 -58t88 -78t66 -100.5t42.5 -125t15.5 -150.5q0 -12 1 -24q0 -72 -13 -154q-26 -183 -99.5 -324.5t-184.5 -231.5t-253 -135.5t-309 -45.5h-445zM334 156h293q260 0 421.5 145.5t200.5 431.5q10 88 11 161v9 q0 67 -15 123q-16 60 -40 106.5t-62.5 81.5t-83.5 59t-103 39t-120.5 22t-135.5 7h-200z" />
<glyph unicode="E" horiz-adv-x="1073" d="M141 0l209 1495h828l-35 -154h-643l-70 -495h617l-23 -154h-616l-74 -536h682l-35 -156h-840z" />
<glyph unicode="F" horiz-adv-x="960" d="M141 0l209 1495h776l-34 -154h-592l-72 -503h573l-20 -144h-571l-99 -694h-170z" />
<glyph unicode="G" horiz-adv-x="1337" d="M194 546q-3 29 -3 59q0 69 12 140q23 160 84 299.5t157 248t234.5 171t302.5 62.5q259 0 408 -146l-80 -137q-53 53 -145.5 91t-188.5 38q-128 0 -234 -51t-178 -139.5t-117.5 -199t-62.5 -237.5q-9 -78 -9 -150v-42q4 -91 34 -168.5t79 -134.5t129 -89t183 -32 q82 0 175 28t150 62l56 395h-344l32 150h478l-91 -641q-134 -81 -247.5 -113.5t-249.5 -32.5q-108 0 -198.5 28.5t-154.5 79.5t-111.5 122t-70 156.5t-29.5 182.5z" />
<glyph unicode="H" horiz-adv-x="1372" d="M141 0l209 1495h170l-90 -647h760l90 647h170l-209 -1495h-170l98 696h-759l-99 -696h-170z" />
<glyph unicode="I" horiz-adv-x="479" d="M156 0l211 1495h170l-211 -1495h-170z" />
<glyph unicode="J" horiz-adv-x="512" d="M-49 -72h69q36 0 64.5 6.5t48.5 17t36 29.5t25.5 37.5t17.5 48t12 53t9 60.5l187 1315h170l-176 -1253q-10 -72 -20 -122t-26 -101.5t-37 -85t-52 -63.5t-72 -47t-96.5 -26.5t-126.5 -9.5h-33v141z" />
<glyph unicode="K" horiz-adv-x="1159" d="M139 0l211 1495h170l-102 -725l696 725h223l-673 -696l530 -799h-215l-461 702l-123 -100l-86 -602h-170z" />
<glyph unicode="L" horiz-adv-x="919" d="M141 0l211 1495h170l-188 -1339h610l-33 -156h-770z" />
<glyph unicode="M" horiz-adv-x="1669" d="M143 0l209 1495h185l358 -1149l676 1149h176l-211 -1495h-160l166 1176l-579 -994h-187l-307 1000l-166 -1182h-160z" />
<glyph unicode="N" horiz-adv-x="1394" d="M141 0l209 1495h187l604 -1241l174 1241h158l-211 -1495h-189l-598 1239l-174 -1239h-160z" />
<glyph unicode="O" horiz-adv-x="1552" d="M201 745q50 355 261 568t531 213q213 0 355 -98t198 -274q35 -110 36 -243q0 -79 -13 -166q-31 -222 -131.5 -393.5t-271.5 -273t-390 -101.5q-165 0 -288 58t-192 162q-70 104 -94 243q-13 72 -12 151q0 74 11 154zM373 549q4 -92 34 -169.5t80 -133t129.5 -86.5 t182.5 -31q128 0 232.5 47.5t175.5 132t116 194.5t63 242q12 77 12 147q0 56 -8 108q-17 116 -65.5 198.5t-138 128t-213.5 45.5q-246 0 -398.5 -168.5t-193.5 -458.5q-9 -78 -9 -149q0 -24 1 -47z" />
<glyph unicode="P" horiz-adv-x="1091" d="M139 0l211 1495h455q103 0 183.5 -22.5t139 -69t83.5 -125.5q16 -49 16 -109q0 -36 -6 -75q-12 -88 -36.5 -156.5t-69.5 -128.5t-110 -99.5t-160.5 -62t-217.5 -22.5q-65 0 -228 14l-90 -639h-170zM420 780q179 -2 242 -2q91 0 159 19t107 47t65 72.5t36.5 82.5t17.5 91 q4 25 4 48q0 90 -58 138q-72 60 -209 61h-286z" />
<glyph unicode="Q" horiz-adv-x="1656" d="M201 745q50 355 261 568t531 213q213 0 355.5 -98.5t197.5 -273.5q35 -111 35 -243q0 -79 -12 -166q-38 -264 -175 -457t-354 -268q28 -94 98.5 -213t102.5 -157l-127 -119q-39 49 -121.5 194.5t-118.5 258.5q-58 -7 -98 -7q-165 0 -288 58t-192 162t-94 243 q-12 72 -12 151q0 74 11 154zM373 549q4 -92 34 -169.5t80 -133t129.5 -86.5t182.5 -31q128 0 232.5 47.5t175.5 132t116 194.5t63 242q12 77 12 147q0 57 -8 108q-17 116 -65.5 198.5t-138 128t-213.5 45.5q-246 0 -398.5 -168.5t-193.5 -458.5q-9 -78 -9 -149q0 -24 1 -47 z" />
<glyph unicode="R" horiz-adv-x="1257" d="M141 0l209 1495h447q110 0 185.5 -8t144.5 -32t106 -66q37 -43 53 -113q9 -38 8 -83q0 -40 -6 -87q-21 -143 -102 -243.5t-219 -137.5q-1 0 12.5 -33.5t33 -85t29.5 -84.5l156 -522h-190l-125 465q-6 22 -17.5 63.5t-18 64t-15.5 50t-17 45.5q-54 -4 -162 -4l-245 8 l-97 -692h-170zM428 842l332 -4h8q119 0 192 29q76 30 111.5 86t48.5 149q4 29 4 54q0 81 -44 126q-58 59 -212 59h-368z" />
<glyph unicode="S" horiz-adv-x="1150" d="M104 100l70 144q204 -115 447 -115q304 0 346 297q3 24 3 45q0 67 -30 111q-40 60 -162 94l-266 74q-269 73 -269 298q0 30 5 62q30 211 180.5 313.5t390.5 102.5q125 0 232 -30t174 -79l-70 -139q-59 37 -157 65.5t-203 28.5q-336 0 -373 -252q-3 -18 -3 -34 q0 -62 36 -102q45 -52 145 -79l254 -67q162 -42 236 -137q55 -71 55 -186q0 -39 -6 -83q-31 -226 -176.5 -340.5t-370.5 -114.5q-166 0 -292 36.5t-196 86.5z" />
<glyph unicode="T" horiz-adv-x="995" d="M186 1341l21 154h1003l-22 -154h-418l-186 -1341h-170l186 1341h-414z" />
<glyph unicode="U" horiz-adv-x="1298" d="M185 342v24q0 73 10 156l137 973h170l-135 -967q-9 -67 -9 -121q0 -125 48 -189q70 -92 262 -93q189 0 286 92.5t127 310.5l136 967h169l-137 -973q-18 -127 -56.5 -222t-107.5 -170t-179.5 -114t-260.5 -39q-121 0 -209 26t-139.5 73.5t-80.5 114.5t-31 151z" />
<glyph unicode="V" horiz-adv-x="1175" d="M201 1495h178l235 -1300q398 857 609 1300h174l-719 -1495h-180z" />
<glyph unicode="W" horiz-adv-x="1990" d="M184 1495h176l218 -1298l536 1245h197l153 -1247l588 1300h174l-690 -1495h-197l-153 1225l-545 -1225h-195z" />
<glyph unicode="X" horiz-adv-x="1220" d="M10 0l606 780l-364 715h205l291 -602l485 602h180l-569 -715l368 -780h-196l-305 680l-512 -680h-189z" />
<glyph unicode="Y" horiz-adv-x="1165" d="M209 1495h176l295 -717l514 717h182l-647 -881l-86 -614h-170l88 614z" />
<glyph unicode="Z" horiz-adv-x="1116" d="M86 0l20 139l943 1202h-742l23 154h958l-16 -123l-955 -1216h777l-33 -156h-975z" />
<glyph unicode="[" horiz-adv-x="643" d="M80 -260l248 1765h432l-19 -125h-260l-213 -1519h260l-16 -121h-432z" />
<glyph unicode="\" horiz-adv-x="868" d="M285 1466h137l383 -1587h-135z" />
<glyph unicode="]" horiz-adv-x="643" d="M68 -260l18 121h258l215 1519h-260l16 125h433l-248 -1765h-432z" />
<glyph unicode="^" horiz-adv-x="1118" d="M174 627l555 932h98l299 -932h-125l-251 747l-449 -747h-127z" />
<glyph unicode="_" horiz-adv-x="1163" d="M102 -293l21 137h885l-21 -137h-885z" />
<glyph unicode="`" horiz-adv-x="610" d="M311 1638h242l123 -387h-109z" />
<glyph unicode="a" horiz-adv-x="909" d="M117 260q6 40 17 75t29.5 63t37 51t48.5 42t53 33t61.5 26.5t64.5 20t71 16t71 13t75 12.5l96 13l19 116q3 22 3 42q1 63 -29 99q-38 46 -134 46q-160 0 -303 -70l-23 127q62 36 154.5 60t187.5 24q74 0 129 -14.5t96.5 -48t57.5 -93.5q9 -34 9 -77q0 -32 -5 -68 l-106 -768h-117l-4 119q-67 -74 -151 -109t-165 -35q-124 0 -194 72q-53 55 -54 151q0 29 5 62zM260 266q-3 -19 -3 -35q0 -56 29 -86q37 -39 109 -39q69 0 155.5 42t139.5 108l35 254q-84 -14 -86 -14q-206 -30 -285 -77t-94 -153z" />
<glyph unicode="b" horiz-adv-x="1017" d="M109 0l208 1487l148 22l-88 -630q65 97 151 143.5t170 46.5q125 0 206.5 -76.5t108.5 -195.5q16 -68 16 -145q0 -57 -9 -117q-16 -115 -56 -215.5t-99.5 -178t-143 -122t-180.5 -44.5q-95 0 -165.5 48.5t-101.5 136.5l-22 -160h-143zM326 318q16 -90 72.5 -147.5 t152.5 -57.5q73 0 131 37t95 99t59.5 129.5t33.5 143.5q10 62 10 119q0 53 -11 105q-11 54 -33.5 94.5t-65 66t-100.5 25.5q-125 -2 -221.5 -115t-122.5 -295q-8 -58 -8 -110q0 -50 8 -94z" />
<glyph unicode="c" horiz-adv-x="823" d="M143 522q22 146 92.5 269.5t185.5 200.5t251 77q169 0 241 -94l-51 -115q-89 72 -211 72q-129 0 -232 -118t-128 -296q-7 -47 -7 -89q0 -119 52 -203q70 -114 211 -113q114 0 221 77l20 -114q-52 -49 -124 -75t-144 -26q-141 0 -236 77q-94 78 -128 200q-21 76 -21 161 q0 52 8 109z" />
<glyph unicode="d" horiz-adv-x="1015" d="M145 535q33 227 165.5 380.5t307.5 153.5q96 0 171.5 -49.5t99.5 -134.5l84 602l145 22l-211 -1509h-127l6 170q-55 -87 -139 -141t-178 -54q-187 1 -273 155q-61 111 -61 270q0 64 10 135zM286 378q6 -72 26.5 -128.5t69 -90.5t118.5 -34q139 0 227 112t113 287 q8 56 8 106q0 51 -8 95q-16 87 -74.5 142t-155.5 55q-56 0 -104.5 -23.5t-83 -61.5t-61.5 -90t-43.5 -106.5t-24.5 -112.5q-10 -53 -10 -103q1 -24 3 -47z" />
<glyph unicode="e" horiz-adv-x="940" d="M145 522q32 234 170 387.5t322 159.5q173 -1 255 -137q59 -98 59 -244q0 -58 -9 -123l-10 -71h-643q-6 -46 -6 -86q0 -112 48 -187q66 -102 193 -102q160 0 314 102l28 -115q-148 -131 -366 -131q-200 0 -295 147q-69 107 -69 271q0 61 9 129zM309 602h502q7 47 7 87 q0 97 -39 159q-55 86 -163 86q-106 0 -189.5 -90t-117.5 -242z" />
<glyph unicode="f" horiz-adv-x="550" d="M166 926l16 116h137l7 37q28 185 72 283t112.5 136t185.5 38h62v-127h-80q-45 0 -76 -11.5t-52 -32t-36 -64t-24 -90.5t-21 -130l-4 -39h213l-16 -116h-213l-132 -926h-143l129 926h-137z" />
<glyph unicode="g" horiz-adv-x="1009" d="M140 372q-1 17 -1 35q0 55 6 111q17 114 56 212t99 174.5t147.5 120.5t191.5 44q92 0 154 -42.5t104 -129.5l21 145h139l-139 -983q-10 -67 -20 -118t-30 -112.5t-46 -106t-68 -89.5t-95 -72.5t-128 -45t-166 -17.5h-152v152h176q73 0 129 12t95.5 39.5t66.5 61t46 86.5 t30 105t22 128l15 96q-63 -85 -138 -131.5t-178 -46.5q-80 0 -144 31t-102.5 82.5t-63.5 118.5t-27 140zM290 418q1 -53 17 -103t41.5 -88t69.5 -61t100 -23q73 0 131.5 28t97 78t61.5 110.5t34 132.5l10 75q7 48 7 92q0 47 -9 89q-15 78 -71 129t-150 51q-59 0 -110.5 -25 t-88 -65t-65.5 -93.5t-45.5 -108t-24.5 -110.5q-5 -46 -5 -92v-16z" />
<glyph unicode="h" horiz-adv-x="968" d="M104 0l209 1487l148 22l-86 -612q146 172 358 172q145 0 200 -113q36 -73 35 -187q0 -62 -10 -136l-90 -633h-143l84 582q14 99 14 169v23q-3 76 -40 114t-115 38q-104 0 -197 -69.5t-123 -149.5l-100 -707h-144z" />
<glyph unicode="i" horiz-adv-x="421" d="M145 0l154 1098h145l-155 -1098h-144zM328 1298l28 197h144l-29 -197h-143z" />
<glyph unicode="j" horiz-adv-x="378" d="M-123 -502l2 152h45q39 0 66.5 4.5t47.5 18.5t32 28.5t21.5 45t14 57t11.5 75.5l172 1219h143l-174 -1237q-15 -106 -36 -171t-59 -110.5t-95.5 -63.5t-145.5 -18h-45zM317 1298l27 197h145l-28 -197h-144z" />
<glyph unicode="k" horiz-adv-x="870" d="M104 0l209 1491l148 18l-123 -876l483 465h197l-467 -457l340 -641h-184l-279 563l-115 -102l-65 -461h-144z" />
<glyph unicode="l" horiz-adv-x="485" d="M167 182q2 67 8.5 122t21.5 165l145 1022l145 18l-151 -1079q-10 -67 -14.5 -107.5t-6.5 -79.5t1.5 -60t13 -37.5t25.5 -22.5t40 -6q11 0 78 6l-8 -131q-59 -12 -100 -12q-58 0 -96.5 9t-61 38.5t-32.5 58.5q-8 24 -8 75v21z" />
<glyph unicode="m" horiz-adv-x="1533" d="M104 0l109 778l35 264h125l-11 -159q73 92 163 139t182 47q102 0 161 -47.5t76 -153.5q141 201 352 201q242 0 241 -281q0 -56 -9 -124l-92 -664h-144l76 541q10 69 14.5 110.5t6.5 91.5v21q0 35 -5 57q-7 28 -22 54.5t-42 37.5t-67 11q-90 0 -170.5 -64t-128.5 -170 l-98 -690h-141l80 573q13 94 13 166v19q-2 78 -36 122t-102 44q-105 0 -195.5 -65.5t-126.5 -151.5l-100 -707h-144z" />
<glyph unicode="n" horiz-adv-x="966" d="M104 0l111 788l33 254h125l-11 -159q65 85 164 135.5t197 50.5q153 -1 209 -111q36 -71 35 -188q0 -65 -11 -145l-88 -625h-143l74 520q11 77 17 124q4 48 6 100q0 9 1 16q-1 40 -7 64q-8 28 -24 54.5t-45.5 37t-72.5 10.5q-109 0 -201.5 -69t-124.5 -148l-100 -709h-144 z" />
<glyph unicode="o" horiz-adv-x="1019" d="M143 520q22 152 90 275t181.5 198.5t251.5 75.5q140 0 229 -75q89 -74 119 -196q17 -70 18 -152q0 -59 -10 -124q-16 -110 -58.5 -208t-106.5 -174t-154 -120.5t-193 -44.5q-138 0 -230 74.5t-126 196.5q-20 74 -20 158q0 56 9 116zM289 366q10 -72 35 -128.5t79 -90.5 t129 -34q73 0 133.5 33.5t101.5 91.5t67 129t38 153q10 55 10 108q0 24 -2 48q-6 74 -29.5 131t-76 91t-129.5 34q-73 0 -135.5 -35t-105.5 -94.5t-71 -132t-40 -154.5q-8 -46 -8 -89q0 -31 4 -61z" />
<glyph unicode="p" horiz-adv-x="1013" d="M47 -459l211 1501h137l-12 -145q134 172 313 172q100 0 171.5 -45t106 -121.5t46.5 -178.5q4 -38 4 -78q0 -66 -12 -136q-21 -143 -84 -263.5t-164.5 -196t-220.5 -75.5q-195 0 -264 183l-84 -594zM321 365q7 -73 29 -127.5t71.5 -86.5t121.5 -32q71 0 129.5 36 t96.5 95.5t62 127.5t35 142q8 46 8 92q0 25 -2 50q-7 73 -27.5 132t-69.5 96.5t-120 37.5q-72 0 -129.5 -32t-96.5 -89.5t-64 -129t-37 -157.5q-9 -55 -9 -105q0 -26 2 -50z" />
<glyph unicode="q" horiz-adv-x="1015" d="M134 348q-1 19 -1 37q0 62 8 127q16 115 56 214.5t100 176.5t145 121.5t185 44.5q188 0 262 -182l22 155h140l-207 -1480l-148 -21l88 627q-58 -91 -141 -142t-180 -51q-77 0 -138 29t-99.5 79t-63.5 118.5t-28 146.5zM285 406v-14q0 -49 11 -94q14 -51 37 -90t66.5 -62 t102.5 -23q73 0 132.5 31t99.5 86.5t66 126t38 155.5q9 52 9 100q0 27 -3 54q-8 73 -32.5 127.5t-76 86.5t-123.5 32q-73 0 -131 -35.5t-95 -96.5t-59.5 -127t-33.5 -141q-6 -59 -8 -116z" />
<glyph unicode="r" horiz-adv-x="571" d="M113 0l112 803q9 63 31 239h123l-14 -188q116 188 299 188h26l-10 -151h-35q-125 0 -205 -81.5t-98 -203.5l-86 -606h-143z" />
<glyph unicode="s" horiz-adv-x="815" d="M113 78l53 123q114 -86 256 -86h14q80 0 134 42.5t73 121.5q0 2 1 6t1 6q1 11 1 21q0 97 -122 137l-116 38q-128 40 -174 111q-35 55 -36 130q0 21 3 44q8 57 34.5 109.5t70 94.5t108.5 67t141 26q165 0 276 -72l-51 -116q-112 55 -231 55q-80 0 -137.5 -44.5 t-67.5 -121.5q-1 -9 -1 -18q0 -87 116 -123l123 -39q114 -34 163 -108q36 -54 36 -136q0 -30 -5 -63v-4q-26 -145 -121 -224.5t-231 -79.5q-100 0 -185 31t-126 72z" />
<glyph unicode="t" horiz-adv-x="593" d="M152 926l26 116h133l95 410l108 10l-59 -420h250l-19 -116h-248l-80 -576q-11 -76 -12 -118v-7q0 -38 10 -62q12 -27 36 -35.5t69 -8.5q26 0 117 8l-7 -133q-153 -14 -163 -14q-112 0 -159 44t-48 142v8q0 96 22 246l72 506h-143z" />
<glyph unicode="u" horiz-adv-x="954" d="M147 346l99 696h143l-96 -692q-5 -34 -5 -63q0 -82 40 -121q54 -53 166 -53q109 0 178 53.5t88 183.5l96 692h143l-98 -696q-11 -80 -40.5 -143.5t-69.5 -105.5t-92.5 -70t-108 -40t-117.5 -12q-78 0 -141 20.5t-111 62.5t-68 116q-12 44 -12 95q0 37 6 77z" />
<glyph unicode="v" horiz-adv-x="886" d="M145 1042h154l174 -868l404 868h153l-514 -1042h-145z" />
<glyph unicode="w" horiz-adv-x="1386" d="M160 1042h149l92 -829l365 829h168l123 -827l319 827h146l-430 -1042h-142l-125 883l-387 -883h-143z" />
<glyph unicode="x" horiz-adv-x="894" d="M23 0l417 528l-264 514h166l199 -395l313 395h166l-410 -518l264 -524h-155l-207 418l-324 -418h-165z" />
<glyph unicode="y" horiz-adv-x="866" d="M-41 -502l6 152h25q55 0 89 3.5t68.5 18.5t56 35t50.5 65t53.5 96.5t63.5 139.5l-221 1034h151l176 -856l369 856h151l-497 -1105q-32 -71 -58.5 -122t-61 -105t-71 -89.5t-82 -65t-101 -43.5t-120.5 -14h-47z" />
<glyph unicode="z" horiz-adv-x="745" d="M78 0l18 131l559 784h-452l16 127h619l-19 -127l-563 -786h469l-16 -129h-631z" />
<glyph unicode="{" horiz-adv-x="651" d="M172 614l21 150h57q40 0 69 23.5t46 69.5t26 85.5t17 99.5l38 283q22 156 99.5 223.5t232.5 67.5l-20 -137q-20 0 -36 -1.5t-30 -6.5t-24 -9t-19 -16t-15 -19.5t-12 -27.5t-9.5 -32t-8.5 -41t-7.5 -46.5t-8.5 -56.5l-33 -236q-11 -89 -56 -174t-128 -125q49 -27 75 -82 t26.5 -109.5t-3.5 -107.5l-31 -233q-7 -45 -10 -69t-5.5 -55t-1 -46t5.5 -33t12.5 -25.5t22 -15.5t32 -10t43.5 -2l-21 -138q-154 0 -212 67.5t-36 223.5l39 283q7 49 10 79.5t2.5 72.5t-9 66.5t-28.5 42t-53 17.5h-57z" />
<glyph unicode="|" horiz-adv-x="442" d="M111 -303l268 1907h143l-266 -1907h-145z" />
<glyph unicode="}" horiz-adv-x="661" d="M80 -238l18 138q34 0 57 4t41 18.5t28 29t19.5 49.5t14.5 65.5t14 89.5l33 233q5 40 16.5 80t32 82.5t55 79t78.5 57.5q-49 27 -75 82t-26.5 109.5t3.5 107.5l35 236q16 99 16 156t-26 78.5t-92 21.5l18 137q155 0 214.5 -67.5t37.5 -223.5l-39 -283q-7 -48 -10 -79.5 t-2 -73t9.5 -66t29 -42t53.5 -17.5h55l-20 -150h-58q-33 0 -58.5 -17.5t-40.5 -42t-27.5 -66t-18 -73t-12.5 -79.5l-39 -283q-22 -156 -100.5 -223.5t-233.5 -67.5z" />
<glyph unicode="~" horiz-adv-x="1253" d="M199 473q37 121 120 204t197 83q49 0 114.5 -27t118.5 -59t108 -59t85 -27q61 0 113.5 56t81.5 134l102 -41q-42 -135 -123 -215t-192 -80q-39 0 -98.5 27t-111.5 59t-112.5 59t-101.5 27q-70 0 -126 -57.5t-85 -140.5z" />
<glyph unicode="&#xa1;" horiz-adv-x="468" d="M129 -416l164 1164h131l-164 -1164h-131zM281 952l30 222h181l-31 -222h-180z" />
<glyph unicode="&#xa2;" horiz-adv-x="1032" d="M170 715q-21 -146 11.5 -267t123 -198.5t227.5 -81.5l21 137q-131 9 -196 122t-40 284q23 174 123.5 291t227.5 122l20 138q-133 -3 -246 -80.5t-182 -200t-90 -266.5zM510 0l22 168h15q37 0 78 6l-25 -174h-90zM553 305l115 819h10q35 0 80 -10l-115 -801q-31 -8 -70 -8 h-20zM625 174q113 23 190 94l-20 115q-70 -53 -152 -70zM688 1262l33 233h90l-35 -240q-44 7 -78 7h-10zM758 1114q76 -17 131 -61l51 114q-58 71 -164 88z" />
<glyph unicode="&#xa3;" horiz-adv-x="1024" d="M123 0v137q97 51 138.5 126.5t60.5 203.5l32 240h-161l20 143h162l10 86q10 73 22 130.5t31.5 121t44.5 111t63 92t84.5 73t110.5 45.5t140 17q114 0 190.5 -48.5t116.5 -127.5l-105 -109q-43 66 -95.5 98.5t-127.5 32.5q-242 0 -295 -364l-22 -158h370l-20 -143h-371 l-24 -177q-39 -270 -154 -378q77 10 84 10h576l-23 -162h-858z" />
<glyph unicode="&#xa4;" horiz-adv-x="956" d="M25 254l254 217q-75 123 -54 270q20 147 129 269l-192 219l55 51l191 -215q130 111 286 111q161 0 258 -115l254 219l35 -55l-250 -217q70 -115 49 -267q-21 -149 -125 -266l191 -217l-49 -55l-195 219q-133 -117 -291 -117q-76 0 -142.5 30.5t-113.5 84.5l-249 -217z M313 741q-20 -142 60.5 -244t212.5 -102t240 101.5t128 244.5q20 142 -60 243t-212 101t-240.5 -101t-128.5 -243z" />
<glyph unicode="&#xa5;" horiz-adv-x="1024" d="M123 330l16 123h365l26 192h-360l16 123h328l-287 727h168l242 -621l426 621h158l-504 -727h325l-18 -123h-348l-27 -192h352l-18 -123h-350l-47 -330h-146l47 330h-364z" />
<glyph unicode="&#xa6;" horiz-adv-x="421" d="M102 -301l91 641h145l-90 -641h-146zM281 965l90 639h143l-90 -639h-143z" />
<glyph unicode="&#xa7;" horiz-adv-x="919" d="M162 4l22 162q113 -72 228 -72q107 0 177 48.5t79 119.5q3 23 0.5 42t-15.5 36t-23.5 28.5t-38.5 28t-45 25.5t-57 29l-75 38q-95 52 -136 123.5t-28 171.5q11 88 64.5 155.5t131.5 111.5q-60 53 -83.5 111.5t-10.5 148.5q21 145 128 221t268 76q106 0 204 -45l-22 -158 q-34 24 -91.5 39.5t-105.5 15.5q-96 0 -158.5 -35.5t-72.5 -109.5q-9 -65 30 -111t154 -104q59 -32 97.5 -59t72.5 -64t47 -82t6 -100q-11 -83 -65 -155t-131 -124q62 -44 89.5 -99.5t14.5 -144.5q-21 -151 -139.5 -236t-282.5 -85q-143 0 -233 53zM399 799q-5 -38 5.5 -68 t41.5 -55.5t60.5 -42t85.5 -43.5q43 27 73 49.5t58.5 60.5t34.5 78q4 30 -4 55.5t-23.5 42.5t-40 33.5t-46 26.5t-49 23t-42.5 22q-65 -40 -105.5 -82t-48.5 -100z" />
<glyph unicode="&#xa8;" horiz-adv-x="724" d="M291 1253l28 213h148l-31 -213h-145zM657 1253l29 213h150l-29 -213h-150z" />
<glyph unicode="&#xa9;" horiz-adv-x="1722" d="M221 780q22 156 82 289t143 227t186 160t213 97.5t222 31.5q118 0 223 -32.5t191.5 -97t144 -161t80.5 -225t0 -289.5q-22 -157 -81.5 -290t-143 -227.5t-188 -160.5t-218 -97.5t-231.5 -31.5q-112 0 -213.5 31.5t-186.5 98t-142.5 160t-80 227t-0.5 290.5zM326.5 557 q8.5 -106 50 -196t105 -155t160 -101.5t214.5 -36.5q124 0 233.5 36.5t194 101t150 153.5t106 195t57.5 224q16 97 8.5 188t-30.5 170.5t-70 145t-110 112.5t-150.5 73t-191.5 26q-146 0 -273 -57t-218 -154.5t-150.5 -226t-79.5 -273.5q-14 -119 -5.5 -225zM520 784 q33 226 178.5 371t348.5 145q165 0 276 -90l-70 -96q-38 32 -100.5 50t-128.5 18q-79 0 -145.5 -32t-112 -87t-75 -125t-40.5 -150q-17 -115 6 -204t92.5 -143t180.5 -54q64 0 137.5 21t116.5 51l20 -107q-56 -35 -141 -58.5t-170 -23.5q-127 0 -220 66t-133.5 183.5 t-19.5 264.5z" />
<glyph unicode="&#xaa;" horiz-adv-x="710" d="M264 1051q12 90 71.5 150.5t145.5 80.5q34 7 96 12.5t80 8.5q14 98 -4.5 134t-83.5 36q-115 0 -172 -99l-43 78q37 69 99.5 103t136.5 34q91 0 140 -64.5t30 -195.5l-51 -348q-7 -41 -15 -133h-98l8 78q-74 -101 -180 -101q-83 0 -128 62.5t-32 163.5zM367 1053 q-7 -58 17.5 -86.5t72.5 -28.5q72 0 119 65t63 164l2 27q-26 -7 -68 -12t-71.5 -10.5t-60.5 -17t-49.5 -36.5t-24.5 -65z" />
<glyph unicode="&#xab;" horiz-adv-x="919" d="M197 584l282 397h160l-301 -397l178 -402h-156zM518 584l303 397h129l-270 -397l151 -402h-124z" />
<glyph unicode="&#xac;" horiz-adv-x="1193" d="M211 709l20 151h955l-86 -604h-127l63 453h-825z" />
<glyph unicode="&#xad;" horiz-adv-x="1148" d="M127 0l20 147h912l-23 -147h-909z" />
<glyph unicode="&#xae;" horiz-adv-x="1710" d="M215.5 533q-12.5 112 5.5 247q22 156 81.5 289t143 227t186.5 160t213 97.5t222 31.5q118 0 223.5 -32t192.5 -98t145.5 -160t81 -226.5t0.5 -288.5q-22 -157 -81.5 -290t-143.5 -227.5t-188.5 -160.5t-218.5 -97.5t-232 -31.5q-93 0 -179.5 22.5t-163.5 67t-136.5 112 t-99 157t-52 201.5zM326.5 557q8.5 -106 50 -196t105 -155t160.5 -101.5t216 -36.5q124 0 234 36.5t195 101t150.5 153.5t106.5 195t58 224q21 147 -3 276t-90 227t-182.5 155t-271.5 57q-146 0 -274 -57t-219 -154.5t-150.5 -226t-79.5 -273.5q-14 -119 -5.5 -225zM606 301 l137 977h244q211 0 304.5 -68t74.5 -202q-15 -107 -83.5 -181t-201.5 -92q28 -26 52.5 -70t41.5 -86t50 -127t61 -151h-143l-84 223q-48 125 -68 158q-13 21 -28 35h-172l-58 -416h-127zM809 844h117q137 0 205 32.5t81 122.5q13 94 -41.5 122t-209.5 28h-109z" />
<glyph unicode="&#xaf;" horiz-adv-x="987" d="M338 1487l18 137h744l-19 -137h-743z" />
<glyph unicode="&#xb0;" horiz-adv-x="765" d="M297 1239q19 129 110.5 222t198.5 93q109 0 173.5 -93t45.5 -222q-19 -130 -110.5 -224.5t-198.5 -94.5t-172.5 94.5t-46.5 224.5zM403 1239q-10 -81 28.5 -136.5t103.5 -55.5q66 0 122 56t66 136q10 81 -30 136t-105 55t-120 -55t-65 -136z" />
<glyph unicode="&#xb1;" horiz-adv-x="1150" d="M127 0l20 147h916l-23 -147h-913zM217 641l23 147h387l55 406h129l-57 -406h395l-21 -147h-391l-55 -401h-129l55 401h-391z" />
<glyph unicode="&#xb2;" horiz-adv-x="712" d="M219 649l19 119q82 86 113 118t93 99t86.5 98.5t58.5 78t48 79t18 62.5q8 56 -17.5 88t-80.5 32q-100 0 -172 -141l-55 84q39 87 107 135.5t147 48.5q94 0 145.5 -67t36.5 -178q-10 -66 -40.5 -130.5t-87 -134t-109.5 -124.5t-140 -138h299l-16 -129h-453z" />
<glyph unicode="&#xb3;" horiz-adv-x="706" d="M229 735l68 103q63 -84 135 -84q61 0 108 41t56 108q10 77 -30.5 110.5t-127.5 33.5h-45l19 127h41q161 0 180 129q9 60 -20 90t-83 30q-74 0 -165 -84l-35 103q46 49 105.5 79.5t117.5 30.5q91 0 148 -67.5t40 -179.5q-19 -130 -116 -193q100 -65 80 -213 q-17 -121 -99.5 -194.5t-185.5 -73.5q-125 0 -191 104z" />
<glyph unicode="&#xb4;" horiz-adv-x="608" d="M299 1249l233 389h242l-366 -389h-109z" />
<glyph unicode="&#xb6;" horiz-adv-x="1007" d="M264 1219q49 342 490 342h346l-19 -131h-69l-224 -1588h-108l221 1588h-203l-223 -1588h-121l142 1006q-117 2 -186 105.5t-46 265.5z" />
<glyph unicode="&#xb7;" horiz-adv-x="442" d="M193 664q6 53 46.5 93t100.5 40q61 0 88.5 -39.5t20.5 -93.5q-6 -53 -46.5 -92.5t-101.5 -39.5q-59 0 -87 39t-21 93z" />
<glyph unicode="&#xb8;" horiz-adv-x="559" d="M53 -403l21 92q87 -27 123 -27q94 0 104 78q6 41 -17 60.5t-65 19.5q-1 0 -5.5 -0.5t-12 -1t-13.5 -0.5l-26 -2l53 200h84l-31 -112h8q71 0 113.5 -40.5t32.5 -119.5q-12 -83 -73.5 -126.5t-151.5 -43.5q-50 0 -144 23z" />
<glyph unicode="&#xb9;" horiz-adv-x="573" d="M248 649l16 129h101l81 590q-51 -31 -135 -74l21 142q93 39 151 84l90 18l-106 -764h98l-16 -125h-301z" />
<glyph unicode="&#xba;" horiz-adv-x="788" d="M291 1210q24 166 111 272.5t214 106.5t185.5 -110t34.5 -275q-24 -164 -111.5 -271.5t-212.5 -107.5q-87 0 -143.5 52t-75 138t-2.5 195zM397 1206q-16 -118 17 -192t114 -74q76 0 130.5 75.5t70.5 186.5q16 116 -17.5 193.5t-111.5 77.5q-77 0 -132 -77.5t-71 -189.5z " />
<glyph unicode="&#xbb;" horiz-adv-x="935" d="M145 182l273 404l-156 395h127l189 -395l-304 -404h-129zM485 182l293 404l-170 395h148l162 -395l-281 -404h-152z" />
<glyph unicode="&#xbc;" horiz-adv-x="1503" d="M231 649l19 129h100l80 590q-61 -37 -133 -74l20 142q91 38 150 84l92 18l-108 -764h104l-16 -125h-308zM276 0l1076 1546h135l-1086 -1546h-125zM899 240l14 100l430 559h115l-76 -541h88l-8 -118h-98l-29 -199h-100l27 199h-363zM1049 358h229l35 250q4 30 9.5 66.5 t6.5 42.5z" />
<glyph unicode="&#xbd;" horiz-adv-x="1486" d="M231 0l1078 1546h143l-1092 -1546h-129zM233 649l19 129h100l82 590q-51 -31 -135 -74l20 142q87 36 150 84l92 18l-106 -764h114l-16 -125h-320zM872 -31l17 123q88 79 129.5 116.5t108.5 100.5t99 98t69.5 79.5t54 78t20.5 62.5q8 56 -23.5 87t-95.5 31 q-121 0 -200 -141l-70 84q46 87 123.5 135.5t171.5 48.5q107 0 162.5 -65.5t40.5 -177.5q-7 -45 -24 -88.5t-50 -90.5t-62 -83.5t-83.5 -89.5t-89.5 -85.5t-103 -93.5h311l-16 -129h-490z" />
<glyph unicode="&#xbe;" horiz-adv-x="1523" d="M215 735l61 103q63 -84 140 -84q61 0 109 41t57 108q10 76 -31 110t-127 34h-47l18 127h41q161 0 180 129q9 60 -18.5 90t-81.5 30q-79 0 -170 -84l-33 103q46 49 107 79.5t119 30.5q95 0 161 -68t50 -179q-18 -128 -138 -193q119 -64 99 -213q-17 -119 -109 -193.5 t-199 -74.5q-122 0 -188 104zM311 0l1075 1546h138l-1088 -1546h-125zM920 246l12 96l432 561h115l-76 -543h90l-8 -114h-99l-28 -203h-103l27 203h-362zM1067 360h229q38 272 54 361z" />
<glyph unicode="&#xbf;" horiz-adv-x="817" d="M127 309q9 64 35 119.5t60 95.5t74 76.5t79.5 70.5t73.5 69t58.5 80.5t31.5 97.5l14 110h129l-6 -65q-3 -60 -10 -109q-8 -58 -48.5 -112t-92.5 -98t-105 -90t-93.5 -107t-50.5 -130q-13 -94 45 -145t158 -51q18 0 35.5 1.5t34.5 6t30.5 8t29.5 10.5t25 11t25 13.5t21 12 t20.5 12.5t16.5 11l22 -125q-145 -107 -301 -107q-162 0 -248 87t-63 247zM535 1235l30 229h213l-33 -229h-210z" />
<glyph unicode="&#xc0;" d="M6 0l729 1495h197l285 -1495h-173l-86 473h-552l-232 -473h-168zM477 610h445l-111 713zM731 2030h242l123 -388h-109z" />
<glyph unicode="&#xc1;" d="M6 0l729 1495h197l285 -1495h-173l-86 473h-552l-232 -473h-168zM477 610h445l-111 713zM674 1640l233 390h242l-367 -390h-108z" />
<glyph unicode="&#xc2;" d="M6 0l729 1495h197l285 -1495h-173l-86 473h-552l-232 -473h-168zM477 610h445l-111 713zM598 1642l236 388h204l125 -388h-129l-116 273l-193 -273h-127z" />
<glyph unicode="&#xc3;" d="M6 0l729 1495h197l285 -1495h-173l-86 473h-552l-232 -473h-168zM477 610h445l-111 713zM588 1681q15 110 64 165t126 55q51 0 108.5 -23.5t99.5 -47.5t54 -24h2q26 1 38 26.5t20 68.5h102q-29 -220 -170 -220q-43 0 -141.5 49.5t-134.5 49.5h-2q-22 0 -39 -28t-25 -71 h-102z" />
<glyph unicode="&#xc4;" d="M6 0l729 1495h197l285 -1495h-173l-86 473h-552l-232 -473h-168zM477 610h445l-111 713zM623 1645l28 213h148l-31 -213h-145zM989 1645l29 213h149l-28 -213h-150z" />
<glyph unicode="&#xc5;" d="M6 0l729 1495h197l285 -1495h-173l-86 473h-552l-232 -473h-168zM477 610h445l-111 713zM725 1833q12 86 74.5 141.5t136.5 55.5q75 0 121.5 -57t34.5 -140t-72.5 -133.5t-134.5 -50.5q-77 0 -124.5 50.5t-35.5 133.5zM817 1833q-6 -52 14 -82.5t62 -30.5q35 0 66.5 33.5 t37.5 79.5q6 47 -14.5 81t-58.5 34q-36 0 -68.5 -35t-38.5 -80z" />
<glyph unicode="&#xc6;" horiz-adv-x="1943" d="M82 0l983 1569h969l-25 -160h-653l-39 -526h588l-23 -158h-569l-39 -567h579l-22 -158h-727l31 426h-625l-268 -426h-160zM610 590h527l57 819h-47z" />
<glyph unicode="&#xc7;" horiz-adv-x="1282" d="M201 745q23 166 87.5 308.5t162.5 247.5t234 165t294 60q250 0 387 -137l-78 -136q-57 53 -140 86t-185 33q-123 0 -226.5 -51t-174.5 -138.5t-117 -199t-64 -238.5q-11 -96 -9 -185.5t31 -168t77 -137t130 -92t189 -33.5q190 0 350 123l33 -146q-152 -129 -420 -129 q-56 0 -127 11l-23 -84h9q71 0 113 -40.5t32 -119.5q-12 -83 -73.5 -126.5t-151.5 -43.5q-50 0 -144 23l21 92q87 -27 123 -27q94 0 104 78q6 41 -17 60.5t-65 19.5q-1 0 -5.5 -0.5t-12 -1t-13.5 -0.5l-26 -2l51 190q-142 45 -231.5 154.5t-119.5 258.5t-5 326z" />
<glyph unicode="&#xc8;" horiz-adv-x="1138" d="M141 0l209 1495h828l-35 -154h-643l-70 -495h617l-23 -154h-616l-74 -536h682l-35 -156h-840zM633 2030h241l123 -388h-108z" />
<glyph unicode="&#xc9;" horiz-adv-x="1138" d="M141 0l209 1495h828l-35 -154h-643l-70 -495h617l-23 -154h-616l-74 -536h682l-35 -156h-840zM575 1640l234 390h242l-367 -390h-109z" />
<glyph unicode="&#xca;" horiz-adv-x="1138" d="M141 0l209 1495h828l-35 -154h-643l-70 -495h617l-23 -154h-616l-74 -536h682l-35 -156h-840zM502 1642l235 388h205l125 -388h-129l-117 273l-192 -273h-127z" />
<glyph unicode="&#xcb;" horiz-adv-x="1138" d="M141 0l209 1495h828l-35 -154h-643l-70 -495h617l-23 -154h-616l-74 -536h682l-35 -156h-840zM524 1645l29 213h147l-30 -213h-146zM891 1645l29 213h149l-29 -213h-149z" />
<glyph unicode="&#xcc;" horiz-adv-x="507" d="M156 0l211 1495h170l-211 -1495h-170zM317 2030h242l123 -388h-109z" />
<glyph unicode="&#xcd;" horiz-adv-x="507" d="M156 0l211 1495h170l-211 -1495h-170zM260 1640l234 390h241l-366 -390h-109z" />
<glyph unicode="&#xce;" horiz-adv-x="507" d="M156 0l211 1495h170l-211 -1495h-170zM186 1642l236 388h205l125 -388h-129l-117 273l-193 -273h-127z" />
<glyph unicode="&#xcf;" horiz-adv-x="507" d="M156 0l211 1495h170l-211 -1495h-170zM209 1645l29 213h147l-31 -213h-145zM575 1645l29 213h150l-29 -213h-150z" />
<glyph unicode="&#xd0;" horiz-adv-x="1521" d="M125 696l18 135h113l94 664h350q83 0 156 -7t141.5 -22t126 -39t108.5 -58t88 -78t66 -100.5t42.5 -125t16 -150.5t-12.5 -178q-26 -183 -99.5 -324.5t-184.5 -231.5t-253 -135.5t-309 -45.5h-445l97 696h-113zM334 156h293q260 0 421.5 145.5t200.5 431.5q10 88 11 161 t-15 132.5t-40 106t-62.5 81.5t-83.5 59t-103 39t-120.5 22t-135.5 7h-200l-72 -510h215l-18 -135h-215z" />
<glyph unicode="&#xd1;" horiz-adv-x="1486" d="M141 0l209 1495h187l604 -1241l174 1241h158l-211 -1495h-189l-598 1239l-174 -1239h-160zM666 1681q15 110 64 165t126 55q51 0 108.5 -23.5t99.5 -47.5t54 -24h2q26 1 38 26.5t20 68.5h102q-29 -220 -170 -220q-43 0 -141.5 49.5t-134.5 49.5h-3q-22 0 -38.5 -27.5 t-24.5 -71.5h-102z" />
<glyph unicode="&#xd2;" horiz-adv-x="1660" d="M201 745q50 355 261 568t531 213q213 0 355.5 -98.5t198 -274t22.5 -408.5q-31 -222 -131.5 -393.5t-271.5 -273t-390 -101.5q-165 0 -288 58t-192 162t-93.5 243t-1.5 305zM373 549q4 -92 34 -169.5t80 -133t129.5 -86.5t182.5 -31q128 0 232.5 47.5t175.5 132 t116 194.5t63 242q21 140 4 255.5t-65.5 198t-138 128t-213.5 45.5q-246 0 -398.5 -168.5t-193.5 -458.5q-12 -104 -8 -196zM895 2030h242l123 -388h-109z" />
<glyph unicode="&#xd3;" horiz-adv-x="1660" d="M201 745q50 355 261 568t531 213q213 0 355.5 -98.5t198 -274t22.5 -408.5q-31 -222 -131.5 -393.5t-271.5 -273t-390 -101.5q-165 0 -288 58t-192 162t-93.5 243t-1.5 305zM373 549q4 -92 34 -169.5t80 -133t129.5 -86.5t182.5 -31q128 0 232.5 47.5t175.5 132 t116 194.5t63 242q21 140 4 255.5t-65.5 198t-138 128t-213.5 45.5q-246 0 -398.5 -168.5t-193.5 -458.5q-12 -104 -8 -196zM838 1640l233 390h242l-367 -390h-108z" />
<glyph unicode="&#xd4;" horiz-adv-x="1660" d="M201 745q50 355 261 568t531 213q213 0 355.5 -98.5t198 -274t22.5 -408.5q-31 -222 -131.5 -393.5t-271.5 -273t-390 -101.5q-165 0 -288 58t-192 162t-93.5 243t-1.5 305zM373 549q4 -92 34 -169.5t80 -133t129.5 -86.5t182.5 -31q128 0 232.5 47.5t175.5 132 t116 194.5t63 242q21 140 4 255.5t-65.5 198t-138 128t-213.5 45.5q-246 0 -398.5 -168.5t-193.5 -458.5q-12 -104 -8 -196zM762 1642l235 388h205l125 -388h-129l-117 273l-192 -273h-127z" />
<glyph unicode="&#xd5;" horiz-adv-x="1660" d="M201 745q50 355 261 568t531 213q213 0 355.5 -98.5t198 -274t22.5 -408.5q-31 -222 -131.5 -393.5t-271.5 -273t-390 -101.5q-165 0 -288 58t-192 162t-93.5 243t-1.5 305zM373 549q4 -92 34 -169.5t80 -133t129.5 -86.5t182.5 -31q128 0 232.5 47.5t175.5 132 t116 194.5t63 242q21 140 4 255.5t-65.5 198t-138 128t-213.5 45.5q-246 0 -398.5 -168.5t-193.5 -458.5q-12 -104 -8 -196zM752 1681q15 110 64 165t126 55q51 0 108.5 -23.5t99.5 -47.5t54 -24h2q26 1 38 26.5t20 68.5h102q-29 -220 -170 -220q-43 0 -141.5 49.5 t-134.5 49.5h-2q-22 0 -39 -28t-25 -71h-102z" />
<glyph unicode="&#xd6;" horiz-adv-x="1660" d="M201 745q50 355 261 568t531 213q213 0 355.5 -98.5t198 -274t22.5 -408.5q-31 -222 -131.5 -393.5t-271.5 -273t-390 -101.5q-165 0 -288 58t-192 162t-93.5 243t-1.5 305zM373 549q4 -92 34 -169.5t80 -133t129.5 -86.5t182.5 -31q128 0 232.5 47.5t175.5 132 t116 194.5t63 242q21 140 4 255.5t-65.5 198t-138 128t-213.5 45.5q-246 0 -398.5 -168.5t-193.5 -458.5q-12 -104 -8 -196zM786 1645l29 213h148l-31 -213h-146zM1153 1645l29 213h149l-28 -213h-150z" />
<glyph unicode="&#xd7;" horiz-adv-x="923" d="M150 276l292 322l-202 320l100 108l217 -319l303 319l72 -111l-291 -317l201 -319l-103 -113l-213 319l-309 -319z" />
<glyph unicode="&#xd8;" horiz-adv-x="1607" d="M225 778q53 372 264.5 589.5t532.5 217.5q124 0 227 -35l101 195l114 -45l-102 -203q149 -95 208.5 -279.5t24.5 -439.5q-25 -176 -89.5 -322.5t-164 -254t-238.5 -167t-304 -59.5q-122 0 -213 29l-97 -184l-108 43l96 190q-159 93 -223.5 283t-28.5 442zM410 784 q-27 -189 12.5 -335t144.5 -222l596 1155q-71 27 -164 27q-123 0 -226.5 -48.5t-176.5 -134t-120 -198t-66 -244.5zM674 172q61 -20 147 -20q124 0 228 48.5t176.5 134.5t119.5 200t66 249q25 176 -10 317.5t-131 221.5z" />
<glyph unicode="&#xd9;" horiz-adv-x="1384" d="M185 341.5q-2 83.5 10 180.5l137 973h170l-135 -967q-31 -218 39.5 -310.5t261.5 -92.5q189 0 286 92.5t127 310.5l136 967h169l-137 -973q-18 -127 -56.5 -222t-107.5 -170t-179.5 -114t-260.5 -39q-121 0 -209 26t-139.5 73.5t-80.5 114.5t-31 150.5zM756 2030h241 l123 -388h-108z" />
<glyph unicode="&#xda;" horiz-adv-x="1384" d="M185 341.5q-2 83.5 10 180.5l137 973h170l-135 -967q-31 -218 39.5 -310.5t261.5 -92.5q189 0 286 92.5t127 310.5l136 967h169l-137 -973q-18 -127 -56.5 -222t-107.5 -170t-179.5 -114t-260.5 -39q-121 0 -209 26t-139.5 73.5t-80.5 114.5t-31 150.5zM698 1640l234 390 h242l-367 -390h-109z" />
<glyph unicode="&#xdb;" horiz-adv-x="1384" d="M185 341.5q-2 83.5 10 180.5l137 973h170l-135 -967q-31 -218 39.5 -310.5t261.5 -92.5q189 0 286 92.5t127 310.5l136 967h169l-137 -973q-18 -127 -56.5 -222t-107.5 -170t-179.5 -114t-260.5 -39q-121 0 -209 26t-139.5 73.5t-80.5 114.5t-31 150.5zM625 1642l235 388 h205l125 -388h-129l-117 273l-192 -273h-127z" />
<glyph unicode="&#xdc;" horiz-adv-x="1384" d="M185 341.5q-2 83.5 10 180.5l137 973h170l-135 -967q-31 -218 39.5 -310.5t261.5 -92.5q189 0 286 92.5t127 310.5l136 967h169l-137 -973q-18 -127 -56.5 -222t-107.5 -170t-179.5 -114t-260.5 -39q-121 0 -209 26t-139.5 73.5t-80.5 114.5t-31 150.5zM647 1645l29 213 h147l-30 -213h-146zM1014 1645l28 213h150l-29 -213h-149z" />
<glyph unicode="&#xdd;" horiz-adv-x="1241" d="M209 1495h176l295 -717l514 717h182l-647 -881l-86 -614h-170l88 614zM627 1640l233 390h242l-367 -390h-108z" />
<glyph unicode="&#xde;" horiz-adv-x="1212" d="M141 0l209 1495h170l-39 -278h303q263 0 379.5 -98.5t85.5 -327.5q-29 -210 -157 -329.5t-363 -119.5l-369 6l-49 -348h-170zM381 494h356q311 0 350 288q22 150 -49 217.5t-260 67.5h-317z" />
<glyph unicode="&#xdf;" horiz-adv-x="1060" d="M109 0l147 1047q33 229 146.5 354t306.5 125q163 0 249.5 -92.5t63.5 -251.5q-6 -40 -17.5 -73.5t-32 -62t-38.5 -49.5t-50.5 -45t-52.5 -37.5t-61 -38.5t-61 -38q29 -27 76.5 -64.5t84.5 -65t78 -69t66 -81t37.5 -94.5t3.5 -116q-13 -93 -47.5 -161.5t-85 -108.5 t-111 -59t-131.5 -19h-295l37 147h266q84 0 139.5 52.5t67.5 142.5q7 49 -9 94.5t-52 84t-70.5 67.5t-82.5 63.5t-69 53.5q-63 56 -55 116q6 54 74 113q26 22 72 53t72.5 51t51.5 58t31 86q12 88 -38.5 139t-133.5 51q-240 0 -285 -315l-149 -1057h-143z" />
<glyph unicode="&#xe0;" horiz-adv-x="1026" d="M117 260q6 40 17 75t29.5 63t37 51t48.5 42t53 33t61.5 26.5t64.5 20t71 16t71 13t75 12.5l96 13l19 116q12 94 -26.5 140.5t-133.5 46.5q-160 0 -303 -70l-23 127q62 36 154.5 60t187.5 24q74 0 129 -14.5t96.5 -48t57.5 -93.5t4 -145l-106 -768h-117l-4 119 q-67 -74 -151 -109t-165 -35q-125 0 -194.5 72t-48.5 213zM260 266q-11 -82 26 -121t109 -39q69 0 155.5 42t139.5 108l35 254q-84 -14 -86 -14q-206 -30 -285 -77t-94 -153zM537 1638h241l123 -387h-108z" />
<glyph unicode="&#xe1;" horiz-adv-x="1026" d="M117 260q6 40 17 75t29.5 63t37 51t48.5 42t53 33t61.5 26.5t64.5 20t71 16t71 13t75 12.5l96 13l19 116q12 94 -26.5 140.5t-133.5 46.5q-160 0 -303 -70l-23 127q62 36 154.5 60t187.5 24q74 0 129 -14.5t96.5 -48t57.5 -93.5t4 -145l-106 -768h-117l-4 119 q-67 -74 -151 -109t-165 -35q-125 0 -194.5 72t-48.5 213zM260 266q-11 -82 26 -121t109 -39q69 0 155.5 42t139.5 108l35 254q-84 -14 -86 -14q-206 -30 -285 -77t-94 -153zM479 1249l234 389h241l-366 -389h-109z" />
<glyph unicode="&#xe2;" horiz-adv-x="1026" d="M117 260q6 40 17 75t29.5 63t37 51t48.5 42t53 33t61.5 26.5t64.5 20t71 16t71 13t75 12.5l96 13l19 116q12 94 -26.5 140.5t-133.5 46.5q-160 0 -303 -70l-23 127q62 36 154.5 60t187.5 24q74 0 129 -14.5t96.5 -48t57.5 -93.5t4 -145l-106 -768h-117l-4 119 q-67 -74 -151 -109t-165 -35q-125 0 -194.5 72t-48.5 213zM260 266q-11 -82 26 -121t109 -39q69 0 155.5 42t139.5 108l35 254q-84 -14 -86 -14q-206 -30 -285 -77t-94 -153zM406 1251l235 387h205l125 -387h-129l-117 273l-193 -273h-126z" />
<glyph unicode="&#xe3;" horiz-adv-x="1026" d="M117 260q6 40 17 75t29.5 63t37 51t48.5 42t53 33t61.5 26.5t64.5 20t71 16t71 13t75 12.5l96 13l19 116q12 94 -26.5 140.5t-133.5 46.5q-160 0 -303 -70l-23 127q62 36 154.5 60t187.5 24q74 0 129 -14.5t96.5 -48t57.5 -93.5t4 -145l-106 -768h-117l-4 119 q-67 -74 -151 -109t-165 -35q-125 0 -194.5 72t-48.5 213zM260 266q-11 -82 26 -121t109 -39q69 0 155.5 42t139.5 108l35 254q-84 -14 -86 -14q-206 -30 -285 -77t-94 -153zM395 1290q15 110 64.5 164.5t126.5 54.5q51 0 108.5 -23.5t99.5 -47t54 -23.5h2q18 1 30.5 17 t17 32.5t9.5 44.5h103q-29 -219 -170 -219q-43 0 -142 49.5t-135 49.5h-2q-22 0 -38.5 -27.5t-24.5 -71.5h-103z" />
<glyph unicode="&#xe4;" horiz-adv-x="1026" d="M117 260q6 40 17 75t29.5 63t37 51t48.5 42t53 33t61.5 26.5t64.5 20t71 16t71 13t75 12.5l96 13l19 116q12 94 -26.5 140.5t-133.5 46.5q-160 0 -303 -70l-23 127q62 36 154.5 60t187.5 24q74 0 129 -14.5t96.5 -48t57.5 -93.5t4 -145l-106 -768h-117l-4 119 q-67 -74 -151 -109t-165 -35q-125 0 -194.5 72t-48.5 213zM260 266q-11 -82 26 -121t109 -39q69 0 155.5 42t139.5 108l35 254q-84 -14 -86 -14q-206 -30 -285 -77t-94 -153zM428 1253l29 213h147l-31 -213h-145zM795 1253l28 213h150l-29 -213h-149z" />
<glyph unicode="&#xe5;" horiz-adv-x="1026" d="M117 260q6 40 17 75t29.5 63t37 51t48.5 42t53 33t61.5 26.5t64.5 20t71 16t71 13t75 12.5l96 13l19 116q12 94 -26.5 140.5t-133.5 46.5q-160 0 -303 -70l-23 127q62 36 154.5 60t187.5 24q74 0 129 -14.5t96.5 -48t57.5 -93.5t4 -145l-106 -768h-117l-4 119 q-67 -74 -151 -109t-165 -35q-125 0 -194.5 72t-48.5 213zM260 266q-11 -82 26 -121t109 -39q69 0 155.5 42t139.5 108l35 254q-84 -14 -86 -14q-206 -30 -285 -77t-94 -153zM532 1442q12 86 74.5 141t136.5 55q75 0 121.5 -56.5t34.5 -139.5t-72.5 -134t-134.5 -51 q-77 0 -124.5 51t-35.5 134zM625 1442q-6 -52 13.5 -82.5t61.5 -30.5q36 0 67.5 34t37.5 79q6 47 -15 80.5t-59 33.5q-36 0 -68 -34.5t-38 -79.5z" />
<glyph unicode="&#xe6;" horiz-adv-x="1445" d="M115 146.5q-13 64.5 0 152.5q8 55 28.5 99.5t47.5 75.5t68 54t80.5 37t96 24t102.5 14.5t111 8.5q9 0 28 2t28 2l22 164q14 103 -16 150t-119 47q-83 0 -169 -23.5t-149 -58.5l-12 137q63 37 159 64.5t187 27.5q106 0 174 -49.5t72 -142.5q60 95 146.5 143.5t183.5 48.5 q68 0 119.5 -24t81.5 -66t47.5 -98t17.5 -120t-8 -132q-6 -52 -21 -80.5t-53 -46.5t-106 -22l-431 -25q-7 -91 0.5 -160t31 -122t69 -81t112.5 -28q140 0 293 110l27 -120q-153 -134 -348 -134q-174 0 -260 138q-91 -60 -202 -100t-206 -40q-59 0 -105 17.5t-80.5 54.5 t-47.5 101.5zM258 291q-24 -178 119 -178q27 0 57 5t74.5 19t62 20t77 28.5t61.5 23.5q-40 121 -25 291q-19 0 -55 -4q-138 -12 -217 -38.5t-112.5 -65t-41.5 -101.5zM852 614l448 29v10q23 171 -9.5 250.5t-127.5 79.5q-123 0 -201.5 -101.5t-109.5 -267.5z" />
<glyph unicode="&#xe7;" horiz-adv-x="960" d="M143 522q22 146 92.5 269.5t185.5 200.5t251 77q169 0 241 -94l-51 -115q-89 72 -211 72q-129 0 -232 -118t-128 -296t45.5 -291.5t210.5 -113.5q114 0 221 77l20 -114q-52 -49 -124 -75t-144 -26q-8 0 -24 1t-23 1l-20 -73h8q71 0 113 -40.5t32 -119.5 q-12 -83 -73.5 -126.5t-151.5 -43.5q-49 0 -143 23l20 92q87 -27 123 -27q94 0 104 78q6 41 -17 60.5t-65 19.5q-1 0 -5.5 -0.5t-11.5 -1t-13 -0.5l-27 -2l47 178q-148 46 -212.5 191.5t-37.5 336.5z" />
<glyph unicode="&#xe8;" horiz-adv-x="1087" d="M145 522q-35 -253 60 -400t295 -147q218 0 366 131l-28 115q-154 -102 -314 -102q-127 0 -193 102t-42 273h643l10 71q32 231 -49.5 367.5t-255.5 136.5q-184 -6 -322 -159.5t-170 -387.5zM309 602q34 152 117.5 242t189.5 90q108 0 163 -86.5t32 -245.5h-502zM555 1638 h242l123 -387h-109z" />
<glyph unicode="&#xe9;" horiz-adv-x="1087" d="M145 522q-35 -253 60 -400t295 -147q218 0 366 131l-28 115q-154 -102 -314 -102q-127 0 -193 102t-42 273h643l10 71q32 231 -49.5 367.5t-255.5 136.5q-184 -6 -322 -159.5t-170 -387.5zM309 602q34 152 117.5 242t189.5 90q108 0 163 -86.5t32 -245.5h-502zM498 1249 l233 389h242l-367 -389h-108z" />
<glyph unicode="&#xea;" horiz-adv-x="1087" d="M145 522q-35 -253 60 -400t295 -147q218 0 366 131l-28 115q-154 -102 -314 -102q-127 0 -193 102t-42 273h643l10 71q32 231 -49.5 367.5t-255.5 136.5q-184 -6 -322 -159.5t-170 -387.5zM309 602q34 152 117.5 242t189.5 90q108 0 163 -86.5t32 -245.5h-502zM422 1251 l235 387h205l125 -387h-129l-117 273l-192 -273h-127z" />
<glyph unicode="&#xeb;" horiz-adv-x="1087" d="M145 522q-35 -253 60 -400t295 -147q218 0 366 131l-28 115q-154 -102 -314 -102q-127 0 -193 102t-42 273h643l10 71q32 231 -49.5 367.5t-255.5 136.5q-184 -6 -322 -159.5t-170 -387.5zM309 602q34 152 117.5 242t189.5 90q108 0 163 -86.5t32 -245.5h-502zM446 1253 l29 213h148l-31 -213h-146zM813 1253l29 213h149l-28 -213h-150z" />
<glyph unicode="&#xec;" horiz-adv-x="428" d="M125 0l145 1042h146l-148 -1042h-143zM223 1638h242l123 -387h-109z" />
<glyph unicode="&#xed;" horiz-adv-x="428" d="M125 0l145 1042h146l-148 -1042h-143zM168 1249l233 389h242l-367 -389h-108z" />
<glyph unicode="&#xee;" horiz-adv-x="428" d="M92 1251l236 387h204l125 -387h-129l-116 273l-193 -273h-127zM125 0l145 1042h146l-148 -1042h-143z" />
<glyph unicode="&#xef;" horiz-adv-x="428" d="M115 1253l28 213h148l-31 -213h-145zM125 0l145 1042h146l-148 -1042h-143zM481 1253l29 213h149l-28 -213h-150z" />
<glyph unicode="&#xf0;" horiz-adv-x="1042" d="M147 485q31 219 163.5 353.5t318.5 134.5q127 0 223 -96q-48 151 -207 380l-248 -112l-18 133l201 86l-170 223h190l123 -155l244 110l20 -129l-201 -90q157 -262 213 -438q62 -194 33 -393q-32 -229 -167.5 -373t-346.5 -144q-104 0 -183.5 41t-124 111.5t-61.5 162 t-2 195.5zM303 485q-14 -98 6.5 -180.5t81 -136t154.5 -53.5q134 0 225 100t113 256q13 93 -9 174t-83 135t-152 54q-132 0 -223.5 -100.5t-112.5 -248.5z" />
<glyph unicode="&#xf1;" horiz-adv-x="1114" d="M104 0l111 788l33 254h125l-11 -159q65 85 164 135.5t197 50.5q153 0 208.5 -110.5t24.5 -333.5l-88 -625h-143l74 520q11 77 16.5 124t7 99.5t-6 81t-24 54.5t-46 36.5t-72.5 10.5q-109 0 -201.5 -69t-124.5 -148l-100 -709h-144zM424 1290q15 110 64 164.5t126 54.5 q51 0 109 -23.5t100 -47t54 -23.5h2q18 1 30.5 17t17 32.5t9.5 44.5h102q-29 -219 -170 -219q-43 0 -141.5 49.5t-134.5 49.5h-2q-22 0 -39 -28t-25 -71h-102z" />
<glyph unicode="&#xf2;" horiz-adv-x="1181" d="M143 520q22 152 90 275t181.5 198.5t251.5 75.5q140 0 229 -75t119 -196.5t8 -275.5q-16 -110 -58.5 -208t-106.5 -174t-154 -120.5t-193 -44.5q-138 0 -230 74.5t-125.5 196.5t-11.5 274zM289 365.5q10 -72.5 35 -128.5t79 -90t129 -34q73 0 133.5 33.5t101.5 91.5 t67 129t38 153q14 81 7.5 155.5t-29.5 131.5t-75.5 91t-129.5 34q-73 0 -135.5 -35t-105.5 -94.5t-71 -132t-40 -154.5q-14 -78 -4 -150.5zM602 1638h242l123 -387h-109z" />
<glyph unicode="&#xf3;" horiz-adv-x="1181" d="M143 520q22 152 90 275t181.5 198.5t251.5 75.5q140 0 229 -75t119 -196.5t8 -275.5q-16 -110 -58.5 -208t-106.5 -174t-154 -120.5t-193 -44.5q-138 0 -230 74.5t-125.5 196.5t-11.5 274zM289 365.5q10 -72.5 35 -128.5t79 -90t129 -34q73 0 133.5 33.5t101.5 91.5 t67 129t38 153q14 81 7.5 155.5t-29.5 131.5t-75.5 91t-129.5 34q-73 0 -135.5 -35t-105.5 -94.5t-71 -132t-40 -154.5q-14 -78 -4 -150.5zM543 1249l233 389h242l-367 -389h-108z" />
<glyph unicode="&#xf4;" horiz-adv-x="1181" d="M143 520q22 152 90 275t181.5 198.5t251.5 75.5q140 0 229 -75t119 -196.5t8 -275.5q-16 -110 -58.5 -208t-106.5 -174t-154 -120.5t-193 -44.5q-138 0 -230 74.5t-125.5 196.5t-11.5 274zM289 365.5q10 -72.5 35 -128.5t79 -90t129 -34q73 0 133.5 33.5t101.5 91.5 t67 129t38 153q14 81 7.5 155.5t-29.5 131.5t-75.5 91t-129.5 34q-73 0 -135.5 -35t-105.5 -94.5t-71 -132t-40 -154.5q-14 -78 -4 -150.5zM469 1251l236 387h204l125 -387h-129l-117 273l-192 -273h-127z" />
<glyph unicode="&#xf5;" horiz-adv-x="1181" d="M143 520q22 152 90 275t181.5 198.5t251.5 75.5q140 0 229 -75t119 -196.5t8 -275.5q-16 -110 -58.5 -208t-106.5 -174t-154 -120.5t-193 -44.5q-138 0 -230 74.5t-125.5 196.5t-11.5 274zM289 365.5q10 -72.5 35 -128.5t79 -90t129 -34q73 0 133.5 33.5t101.5 91.5 t67 129t38 153q14 81 7.5 155.5t-29.5 131.5t-75.5 91t-129.5 34q-73 0 -135.5 -35t-105.5 -94.5t-71 -132t-40 -154.5q-14 -78 -4 -150.5zM459 1290q15 110 64 164.5t126 54.5q51 0 108.5 -23.5t99.5 -47t54 -23.5h2q26 1 38 26t20 68h102q-29 -219 -170 -219 q-43 0 -141.5 49.5t-134.5 49.5h-2q-22 0 -39 -28t-25 -71h-102z" />
<glyph unicode="&#xf6;" horiz-adv-x="1177" d="M143 520q22 152 90 275t181.5 198.5t251.5 75.5q140 0 229 -75t119 -196.5t8 -275.5q-16 -110 -58.5 -208t-106.5 -174t-154 -120.5t-193 -44.5q-138 0 -230 74.5t-125.5 196.5t-11.5 274zM289 365.5q10 -72.5 35 -128.5t79 -90t129 -34q73 0 133.5 33.5t101.5 91.5 t67 129t38 153q14 81 7.5 155.5t-29.5 131.5t-75.5 91t-129.5 34q-73 0 -135.5 -35t-105.5 -94.5t-71 -132t-40 -154.5q-14 -78 -4 -150.5zM494 1253l28 213h148l-31 -213h-145zM860 1253l29 213h149l-28 -213h-150z" />
<glyph unicode="&#xf7;" horiz-adv-x="1132" d="M168 522l20 150h936l-20 -150h-936zM463 23l33 227h182l-33 -227h-182zM592 938l31 227h217l-31 -227h-217z" />
<glyph unicode="&#xf8;" horiz-adv-x="1019" d="M143 520q22 152 90 275t181.5 198.5t251.5 75.5q73 0 137 -22l160 319l61 -37l-160 -313q102 -65 142 -196t16 -298q-16 -110 -58.5 -208t-106.5 -174t-154 -120.5t-193 -44.5q-86 0 -158 29l-141 -278l-55 36l139 277q-97 68 -136.5 195t-15.5 286zM293 516 q-14 -107 3 -196t69 -142l372 737q-46 17 -92 17q-73 0 -135.5 -35t-105.5 -94.5t-71 -132t-40 -154.5zM420 137q46 -24 112 -24q73 0 133.5 33.5t101.5 91.5t67 129t38 153q35 264 -75 361z" />
<glyph unicode="&#xf9;" horiz-adv-x="1097" d="M147 346l99 696h143l-96 -692q-19 -131 35.5 -184t165.5 -53q109 0 178 53.5t88 183.5l96 692h143l-98 -696q-11 -80 -40.5 -143.5t-69.5 -105.5t-92.5 -70t-108 -40t-117.5 -12q-78 0 -141 20.5t-111 62.5t-68 116t-6 172zM559 1638h242l123 -387h-109z" />
<glyph unicode="&#xfa;" horiz-adv-x="1097" d="M147 346l99 696h143l-96 -692q-19 -131 35.5 -184t165.5 -53q109 0 178 53.5t88 183.5l96 692h143l-98 -696q-11 -80 -40.5 -143.5t-69.5 -105.5t-92.5 -70t-108 -40t-117.5 -12q-78 0 -141 20.5t-111 62.5t-68 116t-6 172zM502 1249l233 389h242l-367 -389h-108z" />
<glyph unicode="&#xfb;" horiz-adv-x="1097" d="M147 346l99 696h143l-96 -692q-19 -131 35.5 -184t165.5 -53q109 0 178 53.5t88 183.5l96 692h143l-98 -696q-11 -80 -40.5 -143.5t-69.5 -105.5t-92.5 -70t-108 -40t-117.5 -12q-78 0 -141 20.5t-111 62.5t-68 116t-6 172zM426 1251l236 387h204l125 -387h-129l-117 273 l-192 -273h-127z" />
<glyph unicode="&#xfc;" horiz-adv-x="1097" d="M147 346l99 696h143l-96 -692q-19 -131 35.5 -184t165.5 -53q109 0 178 53.5t88 183.5l96 692h143l-98 -696q-11 -80 -40.5 -143.5t-69.5 -105.5t-92.5 -70t-108 -40t-117.5 -12q-78 0 -141 20.5t-111 62.5t-68 116t-6 172zM451 1253l28 213h148l-31 -213h-145zM817 1253 l29 213h149l-28 -213h-150z" />
<glyph unicode="&#xfd;" horiz-adv-x="989" d="M-41 -502h47q65 0 120.5 14t101 43.5t82 65t71 89.5t61 105t58.5 122l497 1105h-151q-258 -602 -369 -856l-176 856h-151l221 -1034q-39 -88 -63.5 -139.5t-53.5 -96.5t-50.5 -65t-56 -35t-68.5 -18.5t-89 -3.5h-25zM446 1249l234 389h242l-367 -389h-109z" />
<glyph unicode="&#xfe;" horiz-adv-x="1048" d="M49 -459l277 1968h143l-88 -628q135 188 328 188q116 -1 195.5 -72t110 -192.5t9.5 -272.5q-15 -107 -53.5 -205t-96 -177.5t-141 -127t-178.5 -47.5q-206 0 -274 185l-88 -619h-144zM323.5 367q7.5 -74 31.5 -130.5t76 -90t126 -33.5q72 0 130 38t95 101t59.5 130 t32.5 140q8 58 8.5 112t-9.5 109.5t-32 96.5t-63 66.5t-98 25.5q-94 0 -170 -58.5t-120 -149.5t-60 -202q-14 -81 -6.5 -155z" />
<glyph unicode="&#xff;" horiz-adv-x="989" d="M-41 -502h47q65 0 120.5 14t101 43.5t82 65t71 89.5t61 105t58.5 122l497 1105h-151q-258 -602 -369 -856l-176 856h-151l221 -1034q-39 -88 -63.5 -139.5t-53.5 -96.5t-50.5 -65t-56 -35t-68.5 -18.5t-89 -3.5h-25zM397 1253l29 213h147l-30 -213h-146zM764 1253l29 213 h149l-29 -213h-149z" />
<glyph unicode="&#x152;" horiz-adv-x="1851" d="M195.5 506.5q-8.5 121.5 9.5 263.5q36 216 144 388t269 269t347 97q100 0 182 -30t129 -81l10 82h680l-37 -154h-493l-70 -495h461l-23 -154h-461l-75 -536h532l-35 -156h-690l12 82q-37 -35 -138.5 -70t-180.5 -35q-131 0 -235.5 37.5t-173.5 106t-112 166.5 t-51.5 219.5zM375.5 569.5q1.5 -95.5 29 -175.5t75 -138.5t127.5 -92t186 -34.5q80 0 172 31t143 61l145 1039q-112 112 -292 112q-222 0 -377 -167t-197 -433q-13 -107 -11.5 -202.5z" />
<glyph unicode="&#x153;" horiz-adv-x="1650" d="M147 520q22 152 88 275t177.5 198.5t249.5 75.5q124 0 205 -61t118 -168q66 103 168.5 164.5t212.5 64.5q172 0 247 -135t42 -369q-1 -5 -6.5 -33t-6.5 -38h-632q-24 -170 43 -272.5t194 -102.5q149 0 303 102l27 -115q-148 -131 -354 -131q-123 0 -208 60t-122 170 q-69 -107 -167.5 -168.5t-219.5 -61.5q-138 0 -228 74.5t-121.5 196.5t-9.5 274zM296.5 318.5q14.5 -87.5 72.5 -146.5t157 -59q73 0 134 33.5t102 91.5t67.5 129t38.5 153q14 81 7 155.5t-30 131.5t-76 91t-130 34q-73 0 -134 -35t-102 -94.5t-67.5 -132t-38.5 -154.5 q-15 -110 -0.5 -197.5zM1030 600h494q23 161 -27.5 247.5t-157.5 86.5t-191 -91t-118 -243z" />
<glyph unicode="&#x178;" horiz-adv-x="1241" d="M209 1495h176l295 -717l514 717h182l-647 -881l-86 -614h-170l88 614zM575 1645l29 213h148l-31 -213h-146zM942 1645l29 213h149l-28 -213h-150z" />
<glyph unicode="&#x2c6;" horiz-adv-x="761" d="M279 1251l235 387h205l125 -387h-129l-117 273l-192 -273h-127z" />
<glyph unicode="&#x2dc;" horiz-adv-x="829" d="M293 1290q15 110 64 164.5t126 54.5q51 0 108.5 -23.5t99.5 -47t54 -23.5h3q18 1 30.5 17t17 32.5t9.5 44.5h102q-29 -219 -170 -219q-43 0 -141.5 49.5t-134.5 49.5h-2q-22 0 -39 -28t-25 -71h-102z" />
<glyph unicode="&#x2000;" horiz-adv-x="1015" />
<glyph unicode="&#x2001;" horiz-adv-x="2030" />
<glyph unicode="&#x2002;" horiz-adv-x="1015" />
<glyph unicode="&#x2003;" horiz-adv-x="2030" />
<glyph unicode="&#x2004;" horiz-adv-x="676" />
<glyph unicode="&#x2005;" horiz-adv-x="507" />
<glyph unicode="&#x2006;" horiz-adv-x="338" />
<glyph unicode="&#x2007;" horiz-adv-x="338" />
<glyph unicode="&#x2008;" horiz-adv-x="253" />
<glyph unicode="&#x2009;" horiz-adv-x="406" />
<glyph unicode="&#x200a;" horiz-adv-x="112" />
<glyph unicode="&#x2010;" horiz-adv-x="653" d="M160 520l18 144h488l-21 -144h-485z" />
<glyph unicode="&#x2011;" horiz-adv-x="653" d="M160 520l18 144h488l-21 -144h-485z" />
<glyph unicode="&#x2012;" horiz-adv-x="653" d="M160 520l18 144h488l-21 -144h-485z" />
<glyph unicode="&#x2013;" horiz-adv-x="1224" d="M209 526l18 150h975l-20 -150h-973z" />
<glyph unicode="&#x2014;" horiz-adv-x="2256" d="M209 526l18 150h2007l-20 -150h-2005z" />
<glyph unicode="&#x2018;" horiz-adv-x="481" d="M279 1102l196 473h113l-154 -473h-155z" />
<glyph unicode="&#x2019;" horiz-adv-x="475" d="M283 1102l155 473h152l-197 -473h-110z" />
<glyph unicode="&#x201a;" horiz-adv-x="475" d="M86 -256l154 471h153l-194 -471h-113z" />
<glyph unicode="&#x201c;" horiz-adv-x="776" d="M279 1102l194 473h117l-158 -473h-153zM575 1102l195 473h115l-154 -473h-156z" />
<glyph unicode="&#x201d;" horiz-adv-x="755" d="M283 1102l155 473h154l-197 -473h-112zM557 1102l156 473h155l-198 -473h-113z" />
<glyph unicode="&#x201e;" horiz-adv-x="778" d="M86 -256l152 471h153l-192 -471h-113zM387 -256l154 471h155l-194 -471h-115z" />
<glyph unicode="&#x2022;" horiz-adv-x="823" d="M238 748q20 137 119.5 237t213.5 100q117 0 187 -98t51 -233q-20 -138 -119.5 -238t-216.5 -100q-119 0 -186.5 97.5t-48.5 234.5z" />
<glyph unicode="&#x2026;" horiz-adv-x="1480" d="M139 121q6 53 46.5 92t101.5 39t88 -38.5t20 -92.5t-45.5 -93.5t-99.5 -39.5q-60 0 -88.5 39.5t-22.5 93.5zM633 121q6 53 46 92t101 39t88.5 -38.5t20.5 -92.5q-6 -54 -45.5 -93.5t-100.5 -39.5q-59 0 -88 39.5t-22 93.5zM1126 121q6 53 46.5 92t101.5 39t88 -38.5 t20 -92.5t-45.5 -93.5t-99.5 -39.5q-60 0 -88.5 39.5t-22.5 93.5z" />
<glyph unicode="&#x202f;" horiz-adv-x="406" />
<glyph unicode="&#x2039;" horiz-adv-x="581" d="M197 584l280 397h135l-276 -397l158 -402h-134z" />
<glyph unicode="&#x203a;" horiz-adv-x="585" d="M145 182l279 404l-162 395h133l172 -395l-288 -404h-134z" />
<glyph unicode="&#x205f;" horiz-adv-x="507" />
<glyph unicode="&#x20ac;" horiz-adv-x="1130" d="M182 580l31 102h86q0 17 4 49q2 22 11.5 61.5t11.5 53.5h-107l35 110h102q74 260 229.5 414t377.5 154q171 0 258 -94l-27 -181q-82 119 -231 119q-154 0 -260 -109t-164 -303h520l-33 -110h-520q-5 -21 -11.5 -62.5t-10.5 -71.5t-5 -30h510l-24 -102h-486 q-2 -92 13 -170t48.5 -140.5t93 -98.5t138.5 -36q140 0 283 109l-27 -174q-133 -93 -299 -93q-94 0 -169.5 35t-123.5 92.5t-80 137t-45.5 163t-13.5 175.5h-115z" />
<glyph unicode="&#x2122;" horiz-adv-x="1693" d="M283 1395l14 100h596l-14 -100h-246l-111 -787h-108l108 787h-239zM881 608l125 887h149l156 -672l354 672h143l-125 -887h-108l102 742l-354 -670h-80l-151 670l-105 -742h-106z" />
<glyph unicode="&#x25fc;" horiz-adv-x="1044" d="M0 0v1044h1044v-1044h-1044z" />
<glyph unicode="&#xfb01;" horiz-adv-x="940" d="M147 926l19 116h137q28 200 72 305.5t114 147t191 41.5h61l-2 -127h-80q-30 0 -52.5 -4t-41 -15.5t-32 -23.5t-25 -38.5t-19 -48.5t-16 -65t-13.5 -77t-14 -95h521l-148 -1042h-141l129 926h-377l-131 -926h-143l131 926h-140zM858 1298l29 197h143l-26 -197h-146z" />
<glyph unicode="&#xfb02;" horiz-adv-x="1060" d="M147 926l19 116h137q19 136 52 228.5t82.5 144.5t108.5 74t138 22q78 0 363 -20l-146 -1040q-33 -180 -19 -252t107 -72q19 0 64 4l-9 -131q-101 -12 -106 -12q-114 0 -159 47.5t-43.5 158t28.5 291.5l123 889q-115 10 -172 10q-12 0 -21 -0.5t-14 -1t-6 -0.5 q-101 0 -150.5 -73.5t-77.5 -266.5h213l-16 -116h-213l-131 -926h-143l131 926h-140z" />
<glyph unicode="&#xfb03;" horiz-adv-x="1363" d="M147 926l19 116h137q28 200 72 305.5t114 147t191 41.5h61l-2 -127h-80q-30 0 -52.5 -4t-41 -15.5t-32 -23.5t-25 -38.5t-19 -48.5t-16 -65t-13.5 -77t-14 -95h334q17 123 36 203.5t45 140t64.5 91t88 45.5t121.5 14h65l-10 -127h-74q-93 0 -124.5 -50t-51.5 -196 l-16 -121h469l-148 -1042h-141l129 926h-326l-131 -926h-141l129 926h-334l-131 -926h-143l131 926h-140zM1286 1298l29 197h141l-29 -197h-141z" />
</font>
</defs>
</svg>
