<?xml version="1.0" standalone="no"?>
<!DOCTYPE svg PUBLIC "-//W3C//DTD SVG 1.1//EN" "http://www.w3.org/Graphics/SVG/1.1/DTD/svg11.dtd" >
<svg xmlns="http://www.w3.org/2000/svg">
<metadata></metadata>
<defs>
<font id="afta_sansregular" horiz-adv-x="1687" >
<font-face units-per-em="2048" ascent="1638" descent="-410" />
<missing-glyph horiz-adv-x="577" />
<glyph unicode="&#xfb01;" horiz-adv-x="1241" d="M45 973v88h162v188q0 107 31 191t85 135.5t124.5 77.5t152.5 26q67 0 119 -7t98 -24.5t67.5 -28.5t69.5 -38v68h181v-183h-209q-70 50 -157 88.5t-155 38.5q-76 0 -132.5 -34t-86 -88.5t-43.5 -112.5t-14 -117v-180h797v-1061h-146v973h-649v-973h-133v973h-162z" />
<glyph unicode="&#xfb02;" horiz-adv-x="1232" d="M41 971v90h184v182q0 103 19 181t51.5 127.5t83 80t107 42.5t128.5 12q77 0 144.5 -9t137 -35t118.5 -68t80.5 -112.5t31.5 -163.5v-1296h-145v1296q0 148 -87.5 214.5t-279.5 66.5q-63 -2 -109.5 -20t-74 -46.5t-43.5 -73t-21.5 -90t-5.5 -106.5v-182h261v-90h-261v-971 h-135v971h-184z" />
<glyph horiz-adv-x="2048" />
<glyph horiz-adv-x="2048" />
<glyph unicode="&#xd;" horiz-adv-x="2048" />
<glyph unicode=" "  horiz-adv-x="577" />
<glyph unicode="&#x09;" horiz-adv-x="577" />
<glyph unicode="&#xa0;" horiz-adv-x="577" />
<glyph unicode="!" horiz-adv-x="540" d="M195 0v176h174v-176h-174zM201 1063v436h145v-436l-51 -602h-43z" />
<glyph unicode="&#x22;" horiz-adv-x="890" d="M266 1010v485h94v-485h-94zM580 1010v485h90v-485h-90z" />
<glyph unicode="#" horiz-adv-x="1175" d="M94 457v63h248l72 418h-267v63h277l74 451h94l-78 -451h344l76 451h96l-80 -451h197v-63h-207l-70 -418h211v-63h-217q-28 -130 -78 -457h-94l76 457h-344q-15 -96 -29.5 -187t-20.5 -131.5t-12 -77t-12 -61.5h-94l76 457h-238zM434 520h340q15 85 40 224t34 194h-340z " />
<glyph unicode="$" horiz-adv-x="1198" d="M119 82v133q81 -61 209 -106t282 -52v658q-251 75 -371 177t-120 263q0 140 128.5 249.5t362.5 133.5v141h64v-141q293 -17 438 -96v-103q-202 97 -438 113v-623q59 -21 100 -37t96 -42.5t92.5 -51.5t78 -61.5t64.5 -76.5t40 -92.5t16 -111.5q0 -74 -29.5 -136.5 t-77.5 -105.5t-113 -75.5t-131 -50.5t-136 -27v-205h-64v203q-173 7 -299.5 43t-191.5 80zM283 1153q0 -190 327 -315v612q-153 -27 -240 -102.5t-87 -194.5zM674 55q155 43 240 122t85 179q0 29 -4 54t-23 64.5t-51.5 74t-96 77t-150.5 79.5v-650z" />
<glyph unicode="%" horiz-adv-x="2048" d="M209 1075q5 203 83.5 307.5t246.5 104.5q94 0 159.5 -33t99.5 -94t49 -128.5t17 -156.5q-2 -103 -24.5 -179t-54.5 -116t-78 -64t-83 -30t-83 -6q-325 0 -332 395zM293 1069q0 -82 13.5 -144t35.5 -99.5t55 -61t67 -32.5t75 -9q119 0 181 79.5t62 272.5 q0 105 -17.5 178.5t-51.5 113t-76 56.5t-98 17q-59 0 -102 -17t-76.5 -57.5t-50.5 -114.5t-17 -182zM481 -39l1151 1555h105l-1153 -1555h-103zM1296 375q5 203 83 306t249 103q75 0 132.5 -23t92 -59.5t56.5 -91.5t30.5 -110.5t10.5 -124.5q-1 -87 -15.5 -154.5t-40 -109 t-54 -68.5t-67.5 -39.5t-70.5 -17t-72.5 -4.5q-52 0 -91.5 5.5t-87 29t-78.5 63.5t-53 115.5t-24 179.5zM1380 367q0 -102 17 -172.5t51 -110t77.5 -56t102.5 -16.5q125 0 183.5 82t58.5 281q0 210 -55 291.5t-187 81.5q-125 0 -186.5 -86.5t-61.5 -294.5z" />
<glyph unicode="&#x26;" horiz-adv-x="1554" d="M94 520q0 235 107.5 350t349.5 152q-8 36 -22 82t-18.5 74.5t-4.5 78.5q0 56 19 99t49.5 68t75 40.5t88.5 21t98 5.5q158 -2 240.5 -56t82.5 -178q0 -29 -16 -135q215 -37 310 -152t95 -343q0 -161 -60.5 -286.5t-195.5 -225.5q110 -62 226 -62q169 0 319 84v-108 q-112 -62 -326 -62q-90 0 -164 19t-161 73q-212 -96 -516 -96q-157 0 -268.5 37t-178.5 110t-98 173.5t-31 236.5zM229 528q0 -138 26 -231t83.5 -147.5t137.5 -77.5t198 -23q184 0 426 68q-325 312 -539 852q-47 -12 -79 -22.5t-67 -25t-57.5 -31.5t-45.5 -40.5t-37 -53.5 t-25 -69t-16 -88.5t-5 -110.5zM598 1225q0 -99 74.5 -271.5t163.5 -326.5q60 117 88.5 175.5t67 146.5t54 153.5t15.5 122.5q0 45 -12 77.5t-31.5 51t-50.5 29.5t-61 14.5t-70 3.5q-58 0 -97 -6t-73.5 -24t-51 -54t-16.5 -92zM868 539q101 -155 157 -222t146 -141 q121 58 180.5 168t59.5 291q0 86 -12 148.5t-32 104.5t-59 74t-80.5 52.5t-109.5 44.5q-82 -243 -250 -520z" />
<glyph unicode="'" horiz-adv-x="585" d="M266 1010v485h92v-485h-92z" />
<glyph unicode="(" horiz-adv-x="645" d="M133 551q0 260 115.5 522t296.5 469h73q-49 -76 -99.5 -173t-107.5 -231.5t-92.5 -290t-35.5 -296.5q0 -405 321 -987h-59q-32 37 -71.5 88t-104 155.5t-113.5 211.5t-86 251.5t-37 280.5z" />
<glyph unicode=")" horiz-adv-x="630" d="M45 1542h74q188 -232 300.5 -485t112.5 -506q0 -471 -403 -977q-6 -7 -8 -10h-64q59 115 96 189t86 188t76.5 203.5t47.5 198t20 208.5q0 116 -26 244.5t-62.5 232.5t-87 212.5t-87.5 174t-75 127.5z" />
<glyph unicode="*" horiz-adv-x="673" d="M106 1116q62 36 89 49q77 42 149 74q-40 19 -123.5 54.5t-114.5 49.5q2 9 19 48l209 -111v217h53v-217l209 111q14 -33 18 -48q-31 -14 -114 -49.5t-123 -54.5q35 -17 95.5 -48.5t101 -53.5t40.5 -21l-16 -51l-211 147v-266h-53v266l-211 -147z" />
<glyph unicode="+" horiz-adv-x="1228" d="M121 475v86h465v481h92v-481h483v-86h-483v-473h-92v473h-465z" />
<glyph unicode="," horiz-adv-x="569" d="M188 -311q32 3 57 15.5t40.5 27.5t26.5 43t16.5 47.5t8 58t3 57.5t0.5 62h-123v172h178q17 -136 17 -203q0 -89 -18.5 -156.5t-51 -107t-70.5 -61t-84 -27.5v72z" />
<glyph unicode="-" horiz-adv-x="815" d="M137 518v105h574v-105h-574z" />
<glyph unicode="." horiz-adv-x="555" d="M217 -2v172h174v-172h-174z" />
<glyph unicode="/" horiz-adv-x="710" d="M12 -39l623 1581h96l-622 -1581h-97z" />
<glyph unicode="0" horiz-adv-x="1331" d="M115 713q0 135 18 246t49 189.5t76 138t94.5 96t110.5 59t117.5 31t121.5 8.5q55 0 105 -7t109 -28t108 -55.5t96 -93.5t79.5 -137.5t52.5 -193t20 -253.5q0 -136 -21 -247.5t-55.5 -187t-83.5 -133.5t-99 -91t-108.5 -53.5t-106 -27t-96.5 -6.5q-50 0 -98 6.5t-108.5 27 t-112 53.5t-102.5 91t-86.5 133.5t-57.5 187.5t-22 247zM254 698q0 -148 23.5 -262t63.5 -186t98.5 -117.5t122 -63.5t140.5 -18q95 0 171.5 36.5t137 112.5t93.5 206.5t33 306.5q0 183 -33 316.5t-93.5 210.5t-137 113t-171.5 36q-105 0 -184 -35t-140 -113t-92.5 -214.5 t-31.5 -328.5z" />
<glyph unicode="1" horiz-adv-x="890" d="M213 1333v60q1 0 26.5 16.5t59.5 39.5t55 38h168v-1487h-135v1380l-88 -24q-20 -7 -40.5 -12.5t-33 -8.5t-12.5 -2z" />
<glyph unicode="2" horiz-adv-x="1189" d="M70 0q2 89 17.5 165t38.5 135.5t63 113.5t81 94t102.5 82.5t116.5 74t134 72.5h-2q274 134 274 363q0 56 -19.5 105.5t-58.5 90.5t-104.5 66t-151.5 29q-201 0 -332 -160q-91 73 -102 80q58 74 175 125t257 51q117 0 208 -31t146.5 -84.5t84 -122.5t28.5 -149 q0 -306 -367 -484q-88 -44 -157.5 -92.5t-129.5 -111t-94 -142.5t-38 -172h833v-98h-1003z" />
<glyph unicode="3" horiz-adv-x="1269" d="M88 45v109q222 -101 490 -101q102 0 184.5 26.5t132 66t83 90t46 95t12.5 83.5q0 56 -27 111.5t-76.5 102t-130 75t-177.5 28.5h-176v98h176q77 0 135.5 16t95 43t59.5 65t32 78t9 87q0 51 -18 98t-55 87t-100.5 64t-145.5 24q-209 0 -510 -152v111q122 63 244.5 101 t265.5 38q96 0 178.5 -19t150.5 -58t107 -106.5t39 -156.5q0 -144 -63.5 -234t-202.5 -127q66 -16 115 -34t98 -47.5t79.5 -67.5t50 -95.5t19.5 -129.5q0 -90 -43 -171t-120.5 -143t-195.5 -98.5t-259 -36.5q-189 0 -316 25.5t-186 54.5z" />
<glyph unicode="4" horiz-adv-x="1384" d="M76 412v127q136 160 402.5 475.5t402.5 474.5h123v-989h337v-88h-337v-412h-134v412h-794zM143 500h727v880q-190 -228 -727 -880z" />
<glyph unicode="5" horiz-adv-x="1269" d="M90 109v118q293 -143 526 -143q92 0 168 27t125 71t83 101t48.5 114.5t14.5 114.5q0 61 -14.5 116.5t-48.5 106.5t-83.5 88.5t-124.5 59.5t-168 22q-136 0 -383 -86l-110 66q40 262 84 501q4 44 12 78h967q-12 -69 -15 -80h-831l-59 -471q177 76 335 76q132 0 237 -27.5 t184.5 -84t122 -149t42.5 -216.5q0 -162 -77 -279t-208 -175t-301 -58q-138 0 -258 22t-175 43t-93 44z" />
<glyph unicode="6" horiz-adv-x="1232" d="M106 729q0 165 30 295t82.5 216t127 143t159 81.5t183.5 24.5q69 0 132 -10.5t127.5 -34.5t104 -41.5t109.5 -52.5l-8 -119q-252 155 -465 155q-77 0 -141 -22.5t-108.5 -62.5t-80 -93.5t-55.5 -115t-35.5 -128.5t-18.5 -133.5t-5.5 -129.5t2.5 -117q11 33 35 73t65 85.5 t91 82.5t119 61.5t142 24.5q234 0 371 -147q111 -119 118 -287q7 -172 -96 -304q-125 -162 -361 -188q-42 -5 -87 -5q-129 0 -223.5 36t-167 120t-109.5 232t-37 361zM272 449q0 -52 15.5 -106t47 -104.5t74.5 -90t103.5 -63.5t128.5 -24q194 0 305 137q90 111 90 262 t-90 250q-92 103 -248 103q-74 0 -143 -30.5t-122.5 -82t-94.5 -115.5t-66 -136z" />
<glyph unicode="7" horiz-adv-x="1255" d="M115 1376l32 76h1033q0 -39 -5 -69.5t-17.5 -56.5t-21.5 -40.5t-30.5 -42.5t-30.5 -41q1 0 -40.5 -53t-119.5 -151t-163 -203q-117 -168 -117 -367v-428h-139v428q0 133 37.5 228t103.5 182q186 242 426 538h-948z" />
<glyph unicode="8" horiz-adv-x="1255" d="M100 399q0 72 27 140t67.5 117t91.5 91t93.5 66t79.5 39q-33 14 -66 30.5t-77 46.5t-76 62.5t-55 77.5t-23 92q0 156 125.5 241t359.5 85q233 0 355 -92t122 -234q0 -201 -288 -305q80 -37 142 -78.5t116 -97t83 -127t29 -154.5q0 -140 -74.5 -239.5t-199.5 -147 t-287 -47.5q-545 0 -545 434zM238 399q0 -71 24.5 -129t64.5 -96.5t94 -64.5t110.5 -37t115.5 -11q112 0 205 39.5t151 118t58 180.5q0 94 -43.5 173t-115 131t-156.5 83t-173 37q-157 -48 -246 -157.5t-89 -266.5zM309 1180q0 -35 21 -68t61.5 -60.5t78 -48.5t93.5 -41 t82.5 -29t69.5 -22q15 3 53.5 23t88.5 53t87 85.5t37 107.5q0 213 -336 213q-56 0 -112 -12t-107.5 -35.5t-84 -66.5t-32.5 -99z" />
<glyph unicode="9" horiz-adv-x="1232" d="M97 991q-8 172 96 305q125 161 360 188q43 5 88 5q102 0 182 -22t148 -75t112.5 -138t69.5 -214.5t25 -300.5q0 -165 -30 -295t-82.5 -216t-127 -142.5t-159 -81t-183.5 -24.5q-69 0 -132 10.5t-127.5 34.5t-104 41.5t-109.5 52.5l8 119q254 -156 465 -156q77 0 141 22.5 t108.5 62.5t80 93.5t55.5 115.5t35.5 129t18.5 133.5t5.5 129.5t-2.5 117q-11 -33 -35 -73t-65 -85.5t-91 -83t-119 -62t-142 -24.5q-234 0 -370 147q-111 119 -119 287zM249 1006q1 -150 90 -249q94 -102 247 -102q98 0 186 53.5t146.5 134t93.5 177.5q0 65 -25 132.5 t-70 124.5t-117 93.5t-157 36.5q-194 0 -305 -137q-90 -112 -89 -264z" />
<glyph unicode=":" horiz-adv-x="575" d="M217 -2v172h174v-172h-174zM217 887v172h174v-172h-174z" />
<glyph unicode=";" horiz-adv-x="587" d="M188 -311q32 3 57 15.5t40.5 27.5t26.5 43t16.5 47.5t8 58t3 57.5t0.5 62h-123v172h178q17 -136 17 -203q0 -89 -18.5 -156.5t-51 -107t-70.5 -61t-84 -27.5v72zM217 887v172h174v-172h-174z" />
<glyph unicode="&#x3c;" horiz-adv-x="1271" d="M121 481v80q179 73 543.5 243t543.5 243v-109l-1001 -420l1020 -418v-104q-189 76 -553 242.5t-553 242.5z" />
<glyph unicode="=" horiz-adv-x="1224" d="M121 262v84h1026v-84h-1026zM121 686v88h1026v-88h-1026z" />
<glyph unicode="&#x3e;" horiz-adv-x="1265" d="M98 -4v104l1020 418l-1001 420v109q179 -73 543.5 -243t543.5 -243v-80q-188 -76 -552.5 -242.5t-553.5 -242.5z" />
<glyph unicode="?" horiz-adv-x="1189" d="M150 1331v142q75 31 185 48t214 17q148 0 258 -35.5t178 -118t68 -206.5q0 -50 -14 -96.5t-34 -80.5t-54 -70.5t-61.5 -59.5t-68.5 -54q-67 -52 -114 -98t-88 -116t-54 -146h-82q3 64 21 122t38.5 96t57.5 79.5t58.5 60.5t60.5 51q86 72 112 101q78 88 78 211 q0 118 -88.5 187t-271.5 69q-80 0 -165 -20t-129.5 -37.5t-104.5 -45.5zM449 -2v172h172v-172h-172z" />
<glyph unicode="@" horiz-adv-x="1673" d="M100 750q0 238 102.5 418.5t281.5 276t407 95.5q127 0 240 -25t208.5 -76.5t165 -126t108 -179t38.5 -230.5q0 -69 -11.5 -133.5t-40.5 -127.5t-73 -109t-113.5 -74.5t-157.5 -28.5q-97 0 -159 44t-84 97q-64 -114 -205 -114q-238 0 -238 291q0 140 63 234.5t183 94.5 q49 0 116.5 -36t119.5 -107q4 25 9 46.5t12.5 45t10.5 35.5q1 0 6 -2q7 -2 14 -5t29.5 -11t53.5 -19q-4 -29 -13 -92.5t-14.5 -103.5t-10.5 -93.5t-5 -93.5q0 -125 125 -125q75 0 127.5 56t76 145t23.5 203q0 126 -52.5 228t-140 165t-194.5 96t-223 33q-27 0 -48 -1 t-69.5 -7t-88 -17.5t-94 -36t-96.5 -57.5t-86.5 -86.5t-74 -120t-48 -160t-18.5 -204.5q0 -144 30.5 -258t74 -185.5t114 -123t126 -75.5t135.5 -37t117.5 -14.5t95.5 -1.5h14q152 0 323.5 54.5t323.5 140.5v-174q-314 -115 -723 -115q-200 0 -354 57.5t-250.5 162 t-144.5 248t-44 319.5zM705 733q0 -86 37 -129t104 -43q53 0 108.5 49.5t63.5 100.5l18 106q-10 13 -20 25t-34 37t-45.5 42.5t-48.5 31.5t-50 14q-133 0 -133 -234z" />
<glyph unicode="A" horiz-adv-x="1333" d="M23 0l577 1464h211l514 -1464h-151l-185 557h-598l-227 -557h-141zM412 643h551l-261 754z" />
<glyph unicode="B" horiz-adv-x="1402" d="M190 1462h472q146 0 252.5 -27.5t166.5 -77.5t87.5 -112.5t27.5 -140.5q0 -127 -81.5 -202t-215.5 -93q93 -15 169 -46t137.5 -79.5t95.5 -121t34 -163.5q0 -426 -563 -426h-31q-394 6 -546 25q0 250 -2.5 732t-2.5 732zM324 68l307 -15q23 -1 44 0q130 0 224 20 q109 24 168 75t83 115t24 153q0 157 -119 246.5t-314 89.5h-417v-684zM324 844h325q210 0 301.5 60.5t91.5 199.5q0 270 -378 270h-340v-530z" />
<glyph unicode="C" horiz-adv-x="1392" d="M121 725q0 183 59 331.5t161.5 243.5t238.5 146t292 51q170 0 394 -67v-125q-225 106 -394 106q-12 0 -28.5 -1t-55.5 -8t-77 -19t-87.5 -36.5t-92.5 -57.5t-87 -86t-75.5 -118.5t-53.5 -157.5t-26 -200q1 -107 20 -198.5t48 -155.5t71.5 -115.5t83 -83.5t91 -55t87 -34 t80.5 -17t61.5 -7t37.5 0h3q210 0 408 160v-141q-68 -47 -172.5 -85t-235.5 -38q-177 0 -320.5 60.5t-235.5 165.5t-142.5 243.5t-52.5 298.5z" />
<glyph unicode="D" horiz-adv-x="1396" d="M188 2v1464h369q157 0 287.5 -49t215 -126t143 -176.5t83.5 -197t25 -190.5q0 -67 -10.5 -134t-36 -139.5t-63.5 -137t-98.5 -122.5t-136 -100t-180 -67t-227.5 -25h-371zM322 170q0 -58 7 -69t44 -11h186q77 0 154 18.5t156.5 65.5t140 117t99 183t38.5 253 q0 135 -38.5 247t-99.5 185t-139.5 124t-157 73t-153.5 22q-144 0 -190.5 -3t-46.5 -13v-1192z" />
<glyph unicode="E" horiz-adv-x="1163" d="M193 0v1462h849v-86h-720v-588h534v-88h-534v-612h770v-88h-899z" />
<glyph unicode="F" horiz-adv-x="1185" d="M193 0v1462h946v-90h-815v-584h505v-102h-505v-686h-131z" />
<glyph unicode="G" horiz-adv-x="1626" d="M109 735q0 230 88.5 401.5t261.5 267t411 95.5q179 0 326 -25.5t211 -50.5v-137q-23 8 -75.5 29t-90.5 34t-95.5 28.5t-127 23.5t-148.5 8q-150 0 -268 -53t-191.5 -147t-111 -217t-37.5 -269q0 -448 295 -596q135 -66 330 -66h6q156 0 273 28t218 97v430h136v-538 q-363 -119 -627 -119h-16q-768 0 -768 776z" />
<glyph unicode="H" horiz-adv-x="1536" d="M190 0v1464h148v-684h926v684h133v-1464h-133v688h-926v-688h-148z" />
<glyph unicode="I" horiz-adv-x="530" d="M211 0v1464h131v-1464h-131z" />
<glyph unicode="J" horiz-adv-x="557" d="M125 -342q67 67 95 133.5t28 163.5v1511h127v-1511q0 -83 -19 -148.5t-45.5 -104t-63.5 -66t-65 -38t-57 -16.5v76z" />
<glyph unicode="K" horiz-adv-x="1282" d="M178 0v1464h131v-835l719 835h139l-481 -571l592 -893h-160l-520 786l-289 -315v-471h-131z" />
<glyph unicode="L" horiz-adv-x="1095" d="M193 0v1464h135v-1319q0 -41 5 -47t40 -6h714v-92h-894z" />
<glyph unicode="M" horiz-adv-x="1884" d="M188 0v1464h250l496 -1097q13 -29 28 -40.5t28.5 -7t24.5 16.5t19 31q481 1080 488 1097h231v-1464h-131l-2 1382l-559 -1210h-152l-585 1208q0 -212 -3.5 -675.5t-3.5 -704.5h-129z" />
<glyph unicode="N" horiz-adv-x="1456" d="M186 0v1462h195l813 -1306v1306h135v-1462h-153l-859 1378v-1378h-131z" />
<glyph unicode="O" d="M96 729q0 372 200.5 567t571.5 201q397 -6 582.5 -196.5t185.5 -571.5q0 -133 -26.5 -247t-85 -211.5t-147 -166t-218 -107t-291.5 -38.5q-166 0 -295.5 36t-218 101.5t-146 162.5t-84 212.5t-28.5 257.5zM256 731q0 -140 28.5 -252.5t69.5 -182t104 -120t113.5 -74 t118.5 -36t98 -14t71 -1.5h5h4q24 0 44.5 1t68.5 7t88.5 17.5t95.5 35.5t99 56.5t89.5 85t76 118t50 158t19.5 201.5t-19 201.5t-48.5 157.5t-74.5 117t-87.5 84.5t-98 56.5t-95 35t-88.5 17t-70 6.5t-48 0.5h-4q-26 0 -47.5 -1t-68.5 -7t-86 -17.5t-92 -35.5t-94.5 -56.5 t-84.5 -85t-71.5 -117t-47 -156.5t-18.5 -200z" />
<glyph unicode="P" horiz-adv-x="1261" d="M195 -2v1464l503 2q112 0 202 -26t148 -68t97 -99t55.5 -116t16.5 -121q0 -59 -15.5 -115t-54 -112t-96 -97.5t-148.5 -67.5t-205 -26h-372v-618h-131zM326 711h372q82 0 147.5 25t104.5 62.5t65.5 83.5t36 84t9.5 68q0 46 -10 90.5t-35.5 90.5t-65 80.5t-104.5 56.5 t-148 22h-372v-663z" />
<glyph unicode="Q" horiz-adv-x="1681" d="M96 723q0 372 200.5 567t571.5 201q397 -6 582.5 -196.5t185.5 -571.5q0 -127 -24.5 -235.5t-79 -203t-137.5 -163t-205 -113t-277 -55.5v-68q0 -71 26.5 -127t68 -88t83.5 -49.5t83 -21.5v-23q-94 5 -164.5 32t-107 62.5t-59.5 80.5t-28.5 76t-5.5 60v66 q-703 53 -713 770zM256 725q0 -140 28.5 -252.5t69.5 -182t104 -120t113.5 -74t118.5 -36t98 -14t71 -1.5h5h4q24 0 44.5 1t68.5 7t88 17.5t95 35.5t99 56.5t89.5 85t75.5 118t49.5 158t19.5 201.5t-19 201.5t-48 157.5t-74 117t-87 84.5t-97 56.5t-94.5 34.5t-89 17t-70 7 t-48.5 0.5h-4q-26 0 -47.5 -1t-68.5 -7t-86 -17.5t-92 -35.5t-94.5 -56.5t-84.5 -85t-71.5 -117t-47 -156.5t-18.5 -200z" />
<glyph unicode="R" horiz-adv-x="1355" d="M188 0v1464h492q240 0 362.5 -96t122.5 -254q0 -82 -29 -148.5t-77 -108t-101.5 -65.5t-109.5 -30q51 -12 87.5 -34t63 -58.5t40 -64.5t34.5 -79l211 -526h-135q-213 538 -234 586q-31 67 -74.5 97t-111.5 30h-412v-713h-129zM317 813h363q97 0 168 26.5t108 70.5 t53.5 90t16.5 96q0 51 -18.5 98t-57 88.5t-108.5 66.5t-162 25h-363v-561z" />
<glyph unicode="S" horiz-adv-x="1204" d="M115 78v135q87 -65 210.5 -110.5t254.5 -45.5q167 0 282 84.5t115 206.5q0 29 -3.5 52.5t-14.5 58.5t-36.5 65t-64.5 62t-105 60.5t-151 51.5h2q-124 35 -209 71.5t-151 87t-97.5 117.5t-31.5 154q0 152 136 260.5t374 108.5q178 0 281.5 -24t180.5 -62v-104 q-133 61 -235.5 81.5t-228.5 20.5q-146 0 -246.5 -76.5t-100.5 -206.5q0 -122 78.5 -189.5t241.5 -111.5q51 -16 79 -25t79.5 -27.5t82.5 -33.5t75.5 -39.5t72 -48t59 -57t48.5 -69t29 -81t12 -96.5q0 -92 -39.5 -163.5t-98 -113t-136.5 -68t-145.5 -35.5t-133.5 -9 q-161 0 -278.5 36t-186.5 83z" />
<glyph unicode="T" horiz-adv-x="1261" d="M25 1378v88h1247v-88h-547v-1378h-137v1378h-563z" />
<glyph unicode="U" horiz-adv-x="1468" d="M178 643v821h133v-837q0 -31 0.5 -53.5t5 -68t11.5 -80.5t23 -82.5t37.5 -83t56 -73t77 -61.5t103 -39.5t131.5 -15.5q70 0 128.5 15.5t100.5 39t75 61t54 72.5t36 83t22 82t11 81t4.5 68.5t0.5 54.5v837h129v-837q0 -183 -22 -281q-87 -372 -539 -373q-119 0 -213 26.5 t-153.5 63.5t-102 100.5t-63.5 115t-32 130t-12.5 121.5t-1.5 113z" />
<glyph unicode="V" horiz-adv-x="1398" d="M43 1464h143l492 -1370l491 1370h162l-555 -1464h-198z" />
<glyph unicode="W" horiz-adv-x="2170" d="M37 1464h151l496 -1364l352 1364h168l344 -1368l486 1368h155l-532 -1464h-199l-338 1391l-342 -1391h-198z" />
<glyph unicode="X" horiz-adv-x="1398" d="M66 -2l583 756l-551 710h160l459 -610l463 610h159l-538 -710l569 -756h-141l-512 657l-508 -657h-143z" />
<glyph unicode="Y" horiz-adv-x="1413" d="M59 1464h150l512 -811l518 811h152l-592 -915v-551h-148v551z" />
<glyph unicode="Z" horiz-adv-x="1341" d="M70 0v137l1122 1239h-1122v88h1243v-135l-1104 -1227h1104v-102h-1243z" />
<glyph unicode="[" horiz-adv-x="663" d="M184 -436v1972h478v-92h-324v-1790h324v-90h-478z" />
<glyph unicode="\" horiz-adv-x="710" d="M12 1542h97l622 -1581h-96z" />
<glyph unicode="]" horiz-adv-x="663" d="M31 -340h323v1784h-323v92h475v-1970h-475v94z" />
<glyph unicode="^" horiz-adv-x="1232" d="M150 592l460 862v2h74q71 -154 238.5 -455.5t228.5 -425.5h-96l-408 805q-112 -240 -237.5 -479.5t-155.5 -306.5z" />
<glyph unicode="_" horiz-adv-x="1024" d="M20 -246h1027v-39h-1027v39z" />
<glyph unicode="`" horiz-adv-x="454" d="M8 1538h160l102 -229h-86z" />
<glyph unicode="a" horiz-adv-x="948" d="M78 303q0 52 9.5 96t33.5 85t61 69.5t94.5 45.5t131.5 17q167 0 220 8.5t95 47.5q0 88 -8.5 145.5t-23.5 93t-46 53.5t-66 23.5t-94 5.5q-149 0 -303 -61q-22 63 -35 90q164 70 351 70q52 0 95.5 -7.5t85.5 -25t74 -49t56.5 -76t37.5 -109.5t13 -147v-678h-96l-68 76 q-87 -45 -161.5 -67.5t-188.5 -22.5q-122 0 -195 82.5t-73 234.5zM213 301q0 -113 64 -170t167 -57q146 0 279 127l4 358q-58 -15 -112.5 -22t-86.5 -8t-92 -1q-30 0 -44 -0.5t-42 -4.5t-43.5 -12t-36 -24.5t-31 -40t-18.5 -60.5t-8 -85z" />
<glyph unicode="b" horiz-adv-x="1052" d="M102 1626h138v-840q13 49 46.5 101.5t83 99t119 76t144.5 29.5q360 0 360 -529q0 -307 -119.5 -447.5t-379.5 -140.5q-197 0 -388 76zM244 129q131 -70 282 -70q326 0 326 504q0 436 -223 436q-63 0 -119.5 -27.5t-97 -72t-74 -99t-53.5 -112t-30.5 -107.5t-10.5 -87 v-365z" />
<glyph unicode="c" horiz-adv-x="1042" d="M109 539q0 153 37.5 261t111 171t172 91t232.5 28q174 0 337 -91v-108q-5 2 -41.5 18.5t-44.5 20t-39.5 16.5t-44 16.5t-39.5 12.5t-44 11.5t-40 5.5t-44 3q-70 0 -126.5 -10t-112.5 -39.5t-93 -78.5t-60.5 -131t-23.5 -193q0 -116 22.5 -202.5t59.5 -139t92 -85 t112.5 -44t129.5 -11.5q173 0 356 89q0 -42 1 -77t1 -42q-107 -33 -185 -48.5t-173 -15.5q-279 0 -416 139.5t-137 432.5z" />
<glyph unicode="d" horiz-adv-x="1101" d="M106 535q0 148 34.5 260t94 177t133 96.5t158.5 31.5q147 0 342 -74v598h138v-1632h-129q0 4 -4.5 44t-4.5 103q-50 -76 -140 -120t-214 -44q-87 0 -158 29.5t-128.5 93t-89.5 174.5t-32 263zM244 537q0 -51 3.5 -96.5t12.5 -102.5t28.5 -102.5t48 -85.5t74 -62 t103.5 -22q181 0 266.5 98t85.5 291l2 463q-65 30 -169 59t-173 29q-282 0 -282 -459v-10z" />
<glyph unicode="e" horiz-adv-x="1067" d="M109 506q0 283 118 433.5t363 150.5q420 0 420 -543v-8l-766 2q0 -71 2 -118.5t9.5 -103.5t22 -92t39.5 -72.5t61.5 -57t89.5 -33.5t122 -13q77 0 145 30t105 64t63 72q27 -21 47 -37.5t29 -23.5t14 -11q-151 -178 -403 -178q-134 0 -228 37t-148 110t-78.5 168 t-26.5 224zM260 625l629 2q-3 142 -68 256q-71 112 -231 112q-69 0 -125.5 -20.5t-94 -55t-63 -82.5t-36.5 -100.5t-11 -111.5z" />
<glyph unicode="f" horiz-adv-x="659" d="M55 973v88h176v92q0 128 26 215t80.5 136.5t126.5 70t175 20.5q127 0 225 -63l2 -105q-118 62 -227 62q-58 0 -102.5 -9t-74 -21t-49 -38.5t-30 -46.5t-15.5 -61.5t-5.5 -66.5t-0.5 -77v-16v-92h265v-88h-265v-973h-131v973h-176z" />
<glyph unicode="g" horiz-adv-x="1153" d="M102 539q0 276 109 414.5t364 138.5q101 0 172 -21.5t116 -60.5t89 -105l11 156h92v-1073q0 -25 -1 -47t-11 -70.5t-26.5 -87t-53 -86t-85.5 -79t-128 -53.5t-177 -22q-250 0 -409 187l82 65q38 -40 96 -82q115 -80 231 -80q72 0 129.5 17t93 40.5t61.5 61.5t37.5 67 t18 70t7 57t0.5 42v133q-61 -87 -133 -123.5t-191 -36.5q-108 0 -193.5 31.5t-141 85t-92 128.5t-52 157t-15.5 176zM240 539q0 -92 12 -166t32 -123.5t49.5 -86.5t59 -57t67.5 -32t68.5 -15.5t67.5 -3.5q24 0 42.5 1t46.5 6.5t49 14.5t46.5 26.5t45 41.5t38.5 61t31 83.5 t19.5 110t7.5 139.5q0 73 -7.5 134t-18.5 105.5t-30 79t-37 57t-45 38.5t-47 24t-50.5 12.5t-48.5 5t-48 0.5q-108 0 -157 -16q-153 -50 -184 -293q-9 -66 -9 -147z" />
<glyph unicode="h" horiz-adv-x="1165" d="M162 0v1628h135v-786q42 99 165 174.5t247 75.5q148 0 237.5 -115t89.5 -336v-641h-131v655q0 162 -65 248t-193 86q-139 0 -244.5 -94t-105.5 -217v-678h-135z" />
<glyph unicode="i" horiz-adv-x="468" d="M154 1456v174h174v-174h-174zM188 0v1061h140v-1061h-140z" />
<glyph unicode="j" horiz-adv-x="473" d="M61 -438q2 39 2 92q127 115 127 293v1114h140v-1094q0 -92 -20 -164.5t-48.5 -114t-68.5 -70t-69.5 -39.5t-62.5 -17zM158 1456v174h172v-174h-172z" />
<glyph unicode="k" horiz-adv-x="1101" d="M176 0v1626h139v-784q88 136 203 210t248 74q127 0 205 -82t78 -204q0 -219 -318 -430l311 -410h-161l-267 348l-125 -55v108q57 24 112 52.5t115.5 70t105.5 85.5t74.5 99t29.5 109q0 91 -56 148t-143 57q-85 0 -179.5 -58.5t-162 -156.5t-70.5 -199v-608h-139z" />
<glyph unicode="l" horiz-adv-x="468" d="M188 0v1626h136v-1626h-136z" />
<glyph unicode="m" horiz-adv-x="1615" d="M152 0v1059h120l13 -225q41 125 134 191.5t228 66.5q89 0 149.5 -62t96.5 -196q49 113 145 185.5t236 72.5q130 0 191 -102.5t61 -327.5l6 -662h-131v676q0 62 -4 106t-15.5 86t-32.5 67.5t-55.5 40.5t-83.5 15q-75 0 -133.5 -29t-94 -77.5t-53.5 -107.5t-18 -122v-655 h-139v655q0 172 -40.5 254t-145.5 82q-60 0 -110.5 -23.5t-84.5 -61.5t-58 -87t-35 -99.5t-11 -98.5v-621h-135z" />
<glyph unicode="n" horiz-adv-x="1150" d="M168 0v1061h121l12 -211q40 97 164.5 169.5t249.5 72.5q151 0 239 -114.5t88 -336.5v-641h-131v655q0 162 -65 248t-193 86q-139 0 -244.5 -94t-105.5 -217v-678h-135z" />
<glyph unicode="o" horiz-adv-x="1153" d="M100 535q0 278 111 417.5t369 139.5q503 0 503 -557q0 -145 -22.5 -246.5t-77 -176.5t-148.5 -111t-233 -36q-109 0 -195.5 30.5t-143.5 82.5t-94 125.5t-53 155.5t-16 176zM242 535q0 -93 12.5 -167.5t31.5 -123.5t49.5 -84.5t59.5 -54.5t68.5 -30t69.5 -13.5t69 -2.5 q35 0 56.5 1.5t60 10.5t63.5 26t55.5 52t49 84.5t31 126.5t12.5 175q0 75 -8 137t-20 106.5t-32.5 80t-39 58t-47.5 38.5t-50 24t-53.5 12.5t-50.5 5t-49 0.5h-6q-41 0 -63.5 -1t-63 -10t-64 -25.5t-54 -50t-47 -81.5t-28.5 -123t-12 -171z" />
<glyph unicode="p" horiz-adv-x="1114" d="M160 -436v1495h106l25 -246q7 31 37.5 76.5t78 92t119 79.5t146.5 33q96 0 165.5 -38.5t111 -113.5t60.5 -175.5t19 -234.5q0 -289 -118 -418.5t-382 -129.5q-95 0 -237 39v-459h-131zM293 145q67 -35 120 -48t128 -13q64 0 116.5 14t89 37t64 58t43.5 72t26 84.5 t13.5 90t3.5 92.5q0 52 -1.5 94t-7 93t-15 89.5t-26.5 77t-40.5 63t-57.5 40t-77 15.5q-73 0 -136.5 -27t-107 -70t-75 -97t-46 -107t-14.5 -101v-457z" />
<glyph unicode="q" horiz-adv-x="1105" d="M109 535q0 289 117.5 418.5t379.5 129.5q105 0 204.5 -28t166.5 -62v-1425h-133v655q-164 -248 -379 -248q-96 0 -165.5 38.5t-111 113t-60.5 175t-19 233.5zM238 535q0 -61 2.5 -110t10.5 -107t24 -100.5t40 -79t62 -56t88 -19.5q72 0 135.5 27t107 70t75 97t46.5 107 t15 101v457q-148 79 -287 79q-319 0 -319 -466z" />
<glyph unicode="r" horiz-adv-x="751" d="M160 0v1059h112l29 -234q19 48 35.5 82.5t42.5 71t55 59.5t71 37.5t93 14.5q91 0 164 -27l-8 -113q-106 33 -156 33q-44 0 -84.5 -15t-80 -50.5t-68.5 -89t-46.5 -136t-17.5 -184.5v-508h-141z" />
<glyph unicode="s" horiz-adv-x="966" d="M90 88q0 24 1 67t1 66q119 -70 216.5 -109.5t201.5 -39.5q276 0 276 211q0 29 -11.5 54.5t-27 44t-48 37.5t-57 30.5t-72.5 27t-77 23.5l-87 24q-164 48 -227.5 115.5t-63.5 177.5q0 33 8.5 65.5t33 69.5t63.5 64.5t106.5 46t154.5 18.5q80 0 159.5 -17t123 -33t95.5 -39 q10 -5 15 -7q0 -16 1.5 -50.5t1.5 -47.5q-84 36 -134.5 55t-123.5 36t-138 17q-46 0 -81 -6.5t-69 -24.5t-52.5 -56t-18.5 -95q0 -48 13 -80t47.5 -54t71 -35t108.5 -32q223 -56 326.5 -132t103.5 -197q0 -146 -115 -230t-305 -84q-139 0 -249.5 39t-170.5 80z" />
<glyph unicode="t" horiz-adv-x="704" d="M51 973v88h207q7 51 20.5 158t20.5 155h92v-313h275v-88h-275v-688q0 -58 3 -92t9.5 -59.5t21.5 -37t34.5 -16t52.5 -4.5q78 0 150 33v-103q-129 -31 -201 -31q-105 0 -153 49t-48 189v760h-209z" />
<glyph unicode="u" horiz-adv-x="1175" d="M160 403v658h139v-676q0 -168 50 -248t179 -80q93 0 179.5 42.5t145 127t58.5 191.5v643h133v-1061h-122l-11 221q-47 -123 -155 -189.5t-260 -66.5q-71 0 -129.5 23t-106 72.5t-74 136.5t-26.5 206z" />
<glyph unicode="v" horiz-adv-x="1122" d="M68 1061h141l366 -940q2 0 200.5 468.5t193.5 471.5h137l-463 -1061h-129z" />
<glyph unicode="w" horiz-adv-x="1611" d="M55 1061h129l258 -959q1 0 182 478.5t181 480.5h110l334 -961l226 961h131l-267 -1061h-168l-311 977l-348 -977h-158z" />
<glyph unicode="x" horiz-adv-x="1046" d="M51 2l412 553l-369 506h160l281 -406l288 406h158l-367 -506l406 -553h-139l-344 455l-340 -455h-146z" />
<glyph unicode="y" horiz-adv-x="1095" d="M61 1061h140l395 -1061l344 1061h139l-534 -1495h-119l100 328z" />
<glyph unicode="z" horiz-adv-x="937" d="M76 0v109l682 862h-682v90h839v-90l-692 -862h676v-109h-823z" />
<glyph unicode="{" horiz-adv-x="915" d="M135 508v94q168 67 178 209v317q0 109 35.5 191t97 129.5t135.5 70.5t160 23h140v-96h-119q-20 0 -35.5 -0.5t-49.5 -5t-60 -12t-58.5 -24t-53.5 -39.5t-35.5 -59.5t-14.5 -82.5v-410q0 -75 -33 -141.5t-96 -77.5v-78q67 -13 98 -72t31 -137v-430q0 -220 301 -219h6h119 v-94h-140q-87 0 -160 22t-135 70t-97.5 134t-35.5 204v313q0 23 -4 43t-12.5 36.5t-17 30t-23.5 25t-24 19t-27 16.5l-25 12.5t-25 10.5t-20 8z" />
<glyph unicode="|" horiz-adv-x="468" d="M205 -479v2136h96v-2136h-96z" />
<glyph unicode="}" horiz-adv-x="909" d="M76 -342h119q128 0 196 31q113 53 113 188v430q0 80 31 137t98 70v78q-46 7 -76.5 45.5t-41.5 83t-11 92.5v410q0 223 -309 223h-119v96h139q87 0 162 -23t136 -70.5t96.5 -129.5t35.5 -191v-315q0 -49 17.5 -87.5t48 -62.5t55.5 -37t57 -24v-96q-70 -28 -122 -80 t-56 -119v-313q0 -95 -23.5 -169.5t-63.5 -123t-96 -80t-116.5 -44.5t-130.5 -13h-139v94z" />
<glyph unicode="~" horiz-adv-x="1228" d="M217 485q51 24 75 34t62.5 20t73.5 10q96 0 209 -28.5t221 -28.5q104 0 203 45v-93q-137 -57 -203 -57q-102 0 -218 27.5t-216 27.5q-69 0 -203 -39q0 20 -2 43t-2 39z" />
<glyph unicode="&#xa1;" horiz-adv-x="540" d="M197 883v172h172v-172h-172zM217 -8l51 602h43l51 -602v-436h-145v436z" />
<glyph unicode="&#xa2;" horiz-adv-x="1042" d="M109 539q0 264 128 404t353 140v154h67v-154q194 -17 342 -75l-16 -97q-61 27 -95 40t-98.5 29.5t-132.5 23.5v-947q210 19 361 93q0 -103 2 -121q-77 -22 -111 -30.5t-102 -18.5t-150 -13v-221h-67v225q-233 0 -357 152t-124 416zM246 541q0 -221 95 -353.5t249 -132.5 v949q-62 0 -123 -33t-110.5 -91.5t-80 -146.5t-30.5 -190v-2z" />
<glyph unicode="&#xa3;" horiz-adv-x="1198" d="M100 0v88q228 34 228 332v317h-101v92h101v357q0 89 33.5 157.5t90 109t124.5 61t143 20.5q142 0 229 -53v-88q-109 51 -213 51q-62 0 -108 -17.5t-72.5 -44.5t-42 -69t-20.5 -82t-5 -92v-310h232v-92h-232v-317q0 -93 -23 -160t-56.5 -103.5t-85.5 -66.5l362 -4 q395 0 420 320q0 74 -19.5 134t-39.5 88t-48 56q10 13 29.5 32t24.5 25q129 -125 129 -335q0 -106 -39.5 -187.5t-107.5 -129.5t-153.5 -70.5t-183.5 -18.5h-596z" />
<glyph unicode="&#xa5;" horiz-adv-x="1413" d="M49 1497h170l502 -825q301 479 524 825h172l-543 -831h357v-84h-422v-346h422v-82h-422v-154h-152v154h-415v82h415v346h-415v84h350z" />
<glyph unicode="&#xa7;" horiz-adv-x="1138" d="M115 547q0 53 13.5 106.5t45.5 112.5t96.5 109t153.5 79q-96 58 -136 128t-40 186q0 35 8 67t32 68.5t62.5 62.5t106.5 43t157 17q211 0 396 -94v-101q-112 55 -220 81t-176 26q-48 0 -83 -6.5t-70 -24.5t-53.5 -55.5t-18.5 -94.5q0 -243 352 -317q73 -16 127.5 -41.5 t101 -70t71 -115t24.5 -166.5q0 -53 -16.5 -108t-50.5 -110.5t-99 -98t-151 -58.5q247 -95 247 -299q0 -148 -114 -228.5t-306 -80.5q-42 0 -82.5 4t-78.5 14t-65.5 17.5t-63 22.5t-49.5 21t-45.5 21.5t-32.5 16.5v137q234 -152 417 -152q51 0 90.5 5t77 18.5t62 36t39 60 t14.5 87.5q0 66 -53.5 129t-144 103t-189.5 40q-173 0 -264.5 111.5t-91.5 290.5zM254 590q0 -55 2 -92.5t8.5 -75.5t18 -62t32 -47t48.5 -36t69 -23t93 -14t120 -4q111 0 194 87t83 224q0 86 -20 142.5t-48.5 88.5t-93 49.5t-118.5 22t-161 8.5q-86 0 -156.5 -82.5 t-70.5 -185.5z" />
<glyph unicode="&#xa8;" horiz-adv-x="454" d="M-55 1247v201h170v-201h-170zM-55 1247v201h170v-201h-170zM348 1247v201h172v-201h-172zM348 1247v201h172v-201h-172z" />
<glyph unicode="&#xaa;" horiz-adv-x="567" d="M70 1044q0 69 39.5 113.5t128.5 44.5h28h25.5h21t19 1t15.5 2t15 3t12 5t12 7t11 9q0 60 -4.5 92t-21 48.5t-36 20t-61.5 3.5q-87 0 -151 -29l-21 51q85 29 183 29q41 0 70.5 -8t56.5 -29.5t41 -65t14 -108.5v-344h-51l-25 47q-22 -25 -60 -39t-75 -14q-100 0 -143 40 t-43 121zM139 1044q0 -58 33 -87t84 -29q72 0 141 63v183q-41 -17 -139 -17h-25t-23 -2t-23.5 -6t-18.5 -12t-16 -20t-9 -30.5t-4 -42.5z" />
<glyph unicode="&#xab;" horiz-adv-x="1150" d="M133 578q0 24 25 40l348 248q0 -61 -10 -78q-7 -9 -15 -14l-276 -196q40 -31 144 -105t124 -86q16 -12 24 -32t8.5 -31t0.5 -37l-346 250q-27 15 -27 41zM645 578q0 24 25 40l348 248q0 -61 -10 -78q-6 -9 -15 -14l-276 -196q40 -31 144 -105t124 -86q16 -12 24 -32 t8.5 -31t0.5 -37l-346 250q-27 15 -27 41z" />
<glyph unicode="&#xad;" horiz-adv-x="815" d="M137 518v105h574v-105h-574z" />
<glyph unicode="&#xb0;" horiz-adv-x="819" d="M131 1182q0 141 75 215t210 76q151 -1 220 -74t69 -217q0 -132 -70 -209.5t-219 -77.5q-285 0 -285 287zM213 1182q0 -64 18 -110.5t40.5 -68t56 -33.5t49.5 -13t36 -1h3q12 0 22.5 0.5t34 5t42 12.5t41 25t37.5 40t25.5 60t10.5 83q0 64 -20 110t-44.5 67.5t-60.5 33.5 t-52 13t-36 1q-12 0 -22 -0.5t-32.5 -5t-40 -12t-39 -24.5t-35.5 -40t-24 -60t-10 -83z" />
<glyph unicode="&#xb2;" horiz-adv-x="712" d="M80 614q11 151 94.5 249t228.5 165q90 46 134.5 108t44.5 130q0 87 -53 142.5t-173 55.5q-118 0 -198 -90q-18 6 -37 21q95 92 237 92q134 0 201.5 -62t67.5 -159q0 -171 -209 -275q-51 -25 -88 -47.5t-73.5 -54t-59 -66.5t-36.5 -82.5t-14 -103.5h508v-23h-575z" />
<glyph unicode="&#xb3;" horiz-adv-x="698" d="M41 641v39h2q144 -41 281 -41q81 0 141.5 22t91.5 56.5t45 69.5t14 69q0 76 -72 142.5t-196 66.5h-86v27h86q221 0 221 190q0 74 -52 126t-161 52q-117 0 -284 -76v29q152 76 284 76q55 0 101.5 -11t85.5 -34t61.5 -64.5t22.5 -97.5q0 -157 -168 -205q227 -41 227 -221 q0 -104 -98 -178t-258 -74q-186 0 -289 37z" />
<glyph unicode="&#xb4;" horiz-adv-x="454" d="M150 1257l116 263h209l-201 -263h-124z" />
<glyph unicode="&#xb7;" horiz-adv-x="593" d="M217 627v174h174v-174h-174z" />
<glyph unicode="&#xb8;" horiz-adv-x="501" d="M125 -401q53 -21 98 -21q19 0 36.5 3.5t39.5 13.5t35.5 35t13.5 61q0 125 -125 125q-30 0 -76 -11q7 7 23 39l40 80t42 80h14l-84 -164q123 11 181.5 -36t58.5 -113q0 -67 -44 -104.5t-122 -45.5q-81 0 -131 17v41z" />
<glyph unicode="&#xb9;" horiz-adv-x="608" d="M215 1450l29 14l43 23h47v-746h-31v723l-53 -8z" />
<glyph unicode="&#xba;" horiz-adv-x="819" d="M131 1182q0 141 75 215t210 76q151 -1 220 -74t69 -217q0 -132 -70 -209.5t-219 -77.5q-285 0 -285 287zM213 1182q0 -64 18 -110.5t40.5 -68t56 -33.5t49.5 -13t36 -1h3q12 0 22.5 0.5t34 5t42 12.5t41 25t37.5 40t25.5 60t10.5 83q0 64 -20 110t-44.5 67.5t-60.5 33.5 t-52 13t-36 1q-12 0 -22 -0.5t-32.5 -5t-40 -12t-39 -24.5t-35.5 -40t-24 -60t-10 -83z" />
<glyph unicode="&#xbb;" horiz-adv-x="1136" d="M164 287q0 26 0.5 37t8.5 31t24 32q20 12 124 86t144 105l-277 196q-4 2 -7.5 5t-6 8t-4.5 8.5t-3 10t-2 10.5t-1 12v12v13.5v12.5l348 -248q25 -16 25 -40q0 -26 -27 -41zM676 287q0 26 0.5 37t8.5 31t24 32q20 12 124 86t144 105l-277 196q-4 2 -7.5 5t-6 8t-4.5 8.5 t-3 10t-2 10.5t-1 12v12v13.5v12.5l348 -248q25 -16 25 -40q0 -26 -27 -41z" />
<glyph unicode="&#xbf;" horiz-adv-x="1150" d="M164 -121q0 50 13.5 94.5t30 75t55 69.5t62.5 59.5t78 64.5q46 36 70 55.5t63 57t59.5 69.5t38.5 78.5t23 97.5h78q-6 -79 -28 -144.5t-58 -115t-68.5 -81.5t-76.5 -66q-50 -42 -73.5 -64t-56.5 -63t-47 -86t-14 -101q0 -118 90 -187t273 -69q169 0 391 103v-140 q-103 -36 -187.5 -51.5t-203.5 -15.5q-113 0 -204 20.5t-161 63t-108.5 112.5t-38.5 164zM600 887v172h172v-172h-172z" />
<glyph unicode="&#xc0;" horiz-adv-x="1310" d="M23 0l577 1464h211l514 -1464h-151l-185 557h-598l-227 -557h-141zM412 643h551l-261 754zM524 1942h160l102 -230h-86z" />
<glyph unicode="&#xc1;" horiz-adv-x="1310" d="M23 0l577 1464h211l514 -1464h-151l-185 557h-598l-227 -557h-141zM412 643h551l-261 754zM492 1661l116 262h209l-201 -262h-124z" />
<glyph unicode="&#xc2;" horiz-adv-x="1310" d="M23 0l577 1464h211l514 -1464h-151l-185 557h-598l-227 -557h-141zM403 1683l211 265h80l211 -265h-88l-164 211l-161 -211h-89zM412 643h551l-261 754z" />
<glyph unicode="&#xc3;" horiz-adv-x="1310" d="M23 0l577 1464h211l514 -1464h-151l-185 557h-598l-227 -557h-141zM369 1847q26 41 116 41q54 0 161 -28.5t165 -28.5q82 0 129 20v-77q-60 -48 -127 -48q-61 0 -166 27t-166 27q-57 0 -110 -21zM412 643h551l-261 754z" />
<glyph unicode="&#xc4;" horiz-adv-x="1310" d="M23 0l577 1464h211l514 -1464h-151l-185 557h-598l-227 -557h-141zM367 1651v200h170v-200h-170zM367 1651v200h170v-200h-170zM412 643h551l-261 754zM770 1651v200h172v-200h-172zM770 1651v200h172v-200h-172z" />
<glyph unicode="&#xc5;" horiz-adv-x="1310" d="M23 0l577 1464h211l514 -1464h-151l-185 557h-598l-227 -557h-141zM412 643h551l-261 754zM420 1726q0 137 71.5 208t202.5 73q146 -1 212.5 -71.5t66.5 -209.5q0 -127 -67 -201.5t-212 -74.5q-274 0 -274 276zM463 1726q0 -53 11 -95.5t26 -68.5t39 -45t43 -28 t44.5 -13.5t36.5 -5t27 -0.5h4q15 0 26.5 0.5t38.5 5.5t48 14t47 28t43 45t29 68.5t12 94.5t-12 94.5t-29 68.5t-43 45t-47 28t-48 14t-38.5 5.5t-26.5 0.5q-14 0 -25.5 -0.5t-37 -5.5t-45 -14t-44 -28t-41 -45t-27.5 -68t-11 -95z" />
<glyph unicode="&#xc6;" horiz-adv-x="2131" d="M127 2l1075 1460h885v-86h-709q0 -229 1 -403t1 -185h525v-88h-525l4 -612h754v-88h-899v559h-575l-422 -557h-115zM711 645h528l4 731z" />
<glyph unicode="&#xc7;" horiz-adv-x="1392" d="M121 725q0 183 59 331.5t161.5 243.5t238.5 146t292 51q170 0 394 -67v-125q-225 106 -394 106q-12 0 -28.5 -1t-55.5 -8t-77 -19t-87.5 -36.5t-92.5 -57.5t-87 -86t-75.5 -118.5t-53.5 -157.5t-26 -200q1 -107 20 -198.5t48 -155.5t71.5 -115.5t83 -83.5t91 -55t87 -34 t80.5 -17t61.5 -6.5t37.5 -0.5h3q210 0 408 160v-141q-68 -47 -172.5 -85t-235.5 -38q-177 0 -320.5 60.5t-235.5 165.5t-142.5 243.5t-52.5 298.5zM688 -395q52 -21 98 -21q19 0 36.5 3.5t39.5 13.5t35.5 35t13.5 61q0 125 -125 125q-33 0 -75 -10q7 7 22.5 38.5t39.5 79.5 t42 80h14l-84 -164q123 11 181.5 -36t58.5 -113q0 -67 -44 -104.5t-122 -45.5q-81 0 -131 17v41z" />
<glyph unicode="&#xc8;" horiz-adv-x="1163" d="M193 0v1462h849v-86h-720v-588h534v-88h-534v-612h770v-88h-899zM451 1942h159l103 -230h-86z" />
<glyph unicode="&#xc9;" horiz-adv-x="1163" d="M193 0v1462h849v-86h-720v-588h534v-88h-534v-612h770v-88h-899zM418 1661l117 262h208l-200 -262h-125z" />
<glyph unicode="&#xca;" horiz-adv-x="1163" d="M193 0v1462h849v-86h-720v-588h534v-88h-534v-612h770v-88h-899zM330 1683l211 265h80l210 -265h-88l-163 211l-162 -211h-88z" />
<glyph unicode="&#xcb;" horiz-adv-x="1163" d="M193 0v1462h849v-86h-720v-588h534v-88h-534v-612h770v-88h-899zM293 1651v200h170v-200h-170zM293 1651v200h170v-200h-170zM696 1651v200h172v-200h-172zM696 1651v200h172v-200h-172z" />
<glyph unicode="&#xcc;" horiz-adv-x="530" d="M133 1942h160l102 -230h-86zM211 0v1464h131v-1464h-131z" />
<glyph unicode="&#xcd;" horiz-adv-x="530" d="M109 1661l116 262h209l-201 -262h-124zM211 0v1464h131v-1464h-131z" />
<glyph unicode="&#xce;" horiz-adv-x="530" d="M14 1683l211 265h80l211 -265h-88l-164 211l-162 -211h-88zM211 0v1464h131v-1464h-131z" />
<glyph unicode="&#xcf;" horiz-adv-x="530" d="M-23 1651v200h170v-200h-170zM-23 1651v200h170v-200h-170zM211 0v1464h131v-1464h-131zM381 1651v200h172v-200h-172zM381 1651v200h172v-200h-172z" />
<glyph unicode="&#xd1;" horiz-adv-x="1456" d="M186 0v1462h195l813 -1306v1306h135v-1462h-153l-859 1378v-1378h-131zM532 1847q26 41 117 41q54 0 161 -28.5t165 -28.5q82 0 129 20v-77q-60 -48 -127 -48q-61 0 -166 27t-166 27q-57 0 -110 -21z" />
<glyph unicode="&#xd2;" d="M96 729q0 372 200.5 567t571.5 201q397 -6 582.5 -196.5t185.5 -571.5q0 -133 -26.5 -247t-85 -211.5t-147 -166t-218 -107t-291.5 -38.5q-166 0 -295.5 36t-218 101.5t-146 162.5t-84 212.5t-28.5 257.5zM256 731q0 -140 28.5 -252.5t69.5 -182t104 -120t113.5 -74 t118.5 -36t98 -14t71 -1.5h5h4q24 0 44.5 1t68.5 7t88.5 17.5t95.5 35.5t99 56.5t89.5 85t76 118t50 158t19.5 201.5t-19 201.5t-48.5 157.5t-74.5 117t-87.5 84.5t-98 56.5t-95 35t-88.5 17t-70 6.5t-48 0.5h-4q-26 0 -47.5 -1t-68.5 -7t-86 -17.5t-92 -35.5t-94.5 -56.5 t-84.5 -85t-71.5 -117t-47 -156.5t-18.5 -200zM713 1942h159l103 -230h-86z" />
<glyph unicode="&#xd3;" d="M96 729q0 372 200.5 567t571.5 201q397 -6 582.5 -196.5t185.5 -571.5q0 -133 -26.5 -247t-85 -211.5t-147 -166t-218 -107t-291.5 -38.5q-166 0 -295.5 36t-218 101.5t-146 162.5t-84 212.5t-28.5 257.5zM256 731q0 -140 28.5 -252.5t69.5 -182t104 -120t113.5 -74 t118.5 -36t98 -14t71 -1.5h5h4q24 0 44.5 1t68.5 7t88.5 17.5t95.5 35.5t99 56.5t89.5 85t76 118t50 158t19.5 201.5t-19 201.5t-48.5 157.5t-74.5 117t-87.5 84.5t-98 56.5t-95 35t-88.5 17t-70 6.5t-48 0.5h-4q-26 0 -47.5 -1t-68.5 -7t-86 -17.5t-92 -35.5t-94.5 -56.5 t-84.5 -85t-71.5 -117t-47 -156.5t-18.5 -200zM680 1661l117 262h209l-201 -262h-125z" />
<glyph unicode="&#xd4;" d="M96 729q0 372 200.5 567t571.5 201q397 -6 582.5 -196.5t185.5 -571.5q0 -133 -26.5 -247t-85 -211.5t-147 -166t-218 -107t-291.5 -38.5q-166 0 -295.5 36t-218 101.5t-146 162.5t-84 212.5t-28.5 257.5zM256 731q0 -140 28.5 -252.5t69.5 -182t104 -120t113.5 -74 t118.5 -36t98 -14t71 -1.5h5h4q24 0 44.5 1t68.5 7t88.5 17.5t95.5 35.5t99 56.5t89.5 85t76 118t50 158t19.5 201.5t-19 201.5t-48.5 157.5t-74.5 117t-87.5 84.5t-98 56.5t-95 35t-88.5 17t-70 6.5t-48 0.5h-4q-26 0 -47.5 -1t-68.5 -7t-86 -17.5t-92 -35.5t-94.5 -56.5 t-84.5 -85t-71.5 -117t-47 -156.5t-18.5 -200zM592 1683l211 265h80l211 -265h-88l-164 211l-162 -211h-88z" />
<glyph unicode="&#xd5;" d="M96 729q0 372 200.5 567t571.5 201q397 -6 582.5 -196.5t185.5 -571.5q0 -133 -26.5 -247t-85 -211.5t-147 -166t-218 -107t-291.5 -38.5q-166 0 -295.5 36t-218 101.5t-146 162.5t-84 212.5t-28.5 257.5zM256 731q0 -140 28.5 -252.5t69.5 -182t104 -120t113.5 -74 t118.5 -36t98 -14t71 -1.5h5h4q24 0 44.5 1t68.5 7t88.5 17.5t95.5 35.5t99 56.5t89.5 85t76 118t50 158t19.5 201.5t-19 201.5t-48.5 157.5t-74.5 117t-87.5 84.5t-98 56.5t-95 35t-88.5 17t-70 6.5t-48 0.5h-4q-26 0 -47.5 -1t-68.5 -7t-86 -17.5t-92 -35.5t-94.5 -56.5 t-84.5 -85t-71.5 -117t-47 -156.5t-18.5 -200zM557 1847q26 41 117 41q54 0 160.5 -28.5t164.5 -28.5q82 0 129 20v-77q-60 -48 -127 -48q-61 0 -165 27t-166 27q-58 0 -111 -21z" />
<glyph unicode="&#xd6;" d="M96 729q0 372 200.5 567t571.5 201q397 -6 582.5 -196.5t185.5 -571.5q0 -133 -26.5 -247t-85 -211.5t-147 -166t-218 -107t-291.5 -38.5q-166 0 -295.5 36t-218 101.5t-146 162.5t-84 212.5t-28.5 257.5zM256 731q0 -140 28.5 -252.5t69.5 -182t104 -120t113.5 -74 t118.5 -36t98 -14t71 -1.5h5h4q24 0 44.5 1t68.5 7t88.5 17.5t95.5 35.5t99 56.5t89.5 85t76 118t50 158t19.5 201.5t-19 201.5t-48.5 157.5t-74.5 117t-87.5 84.5t-98 56.5t-95 35t-88.5 17t-70 6.5t-48 0.5h-4q-26 0 -47.5 -1t-68.5 -7t-86 -17.5t-92 -35.5t-94.5 -56.5 t-84.5 -85t-71.5 -117t-47 -156.5t-18.5 -200zM555 1651v200h170v-200h-170zM555 1651v200h170v-200h-170zM958 1651v200h172v-200h-172zM958 1651v200h172v-200h-172z" />
<glyph unicode="&#xd8;" d="M96 729q0 178 57.5 323.5t160 242.5t244.5 149.5t310 52.5q151 0 275 -31q2 10 10 21q1 3 4 7t4 7q2 2 2 6h39l-20 -49q236 -90 345 -267.5t109 -461.5q0 -133 -26.5 -247t-85 -211.5t-147 -166t-218 -107t-291.5 -38.5q-115 0 -268 25l-8 -25h-35l14 31 q-465 156 -475 739zM256 731q0 -465 348 -643l264 664l244 622q-60 16 -103 23.5t-68 8.5t-75 1q-27 0 -48.5 -1t-69 -7t-86.5 -17.5t-92 -35.5t-94 -56.5t-84 -85t-71.5 -117t-46.5 -156.5t-18 -200zM639 76q89 -25 229 -25q24 0 44.5 1t68.5 7t88.5 17.5t95.5 35.5 t99 56.5t89.5 85t76 118t50 158t19.5 201.5q0 440 -354 631z" />
<glyph unicode="&#xd9;" horiz-adv-x="1468" d="M178 643v821h133v-837q0 -31 0.5 -53.5t5 -68t11.5 -80.5t23 -82.5t37.5 -83t56 -73t77 -61.5t103 -39.5t131.5 -15.5q70 0 128.5 15.5t100.5 39t75 61t54 72.5t36 83t22 82t11 81t4.5 68.5t0.5 54.5v837h129v-837q0 -183 -22 -281q-87 -372 -539 -373q-119 0 -213 26.5 t-153.5 63.5t-102 100.5t-63.5 115t-32 130t-12.5 121.5t-1.5 113zM602 1942h160l102 -230h-86z" />
<glyph unicode="&#xda;" horiz-adv-x="1468" d="M178 643v821h133v-837q0 -31 0.5 -53.5t5 -68t11.5 -80.5t23 -82.5t37.5 -83t56 -73t77 -61.5t103 -39.5t131.5 -15.5q70 0 128.5 15.5t100.5 39t75 61t54 72.5t36 83t22 82t11 81t4.5 68.5t0.5 54.5v837h129v-837q0 -183 -22 -281q-87 -372 -539 -373q-119 0 -213 26.5 t-153.5 63.5t-102 100.5t-63.5 115t-32 130t-12.5 121.5t-1.5 113zM571 1661l117 262h209l-201 -262h-125z" />
<glyph unicode="&#xdb;" horiz-adv-x="1468" d="M178 643v821h133v-837q0 -31 0.5 -53.5t5 -68t11.5 -80.5t23 -82.5t37.5 -83t56 -73t77 -61.5t103 -39.5t131.5 -15.5q70 0 128.5 15.5t100.5 39t75 61t54 72.5t36 83t22 82t11 81t4.5 68.5t0.5 54.5v837h129v-837q0 -183 -22 -281q-87 -372 -539 -373q-119 0 -213 26.5 t-153.5 63.5t-102 100.5t-63.5 115t-32 130t-12.5 121.5t-1.5 113zM483 1683l211 265h80l211 -265h-88l-164 211l-162 -211h-88z" />
<glyph unicode="&#xdc;" horiz-adv-x="1468" d="M178 643v821h133v-837q0 -31 0.5 -53.5t5 -68t11.5 -80.5t23 -82.5t37.5 -83t56 -73t77 -61.5t103 -39.5t131.5 -15.5q70 0 128.5 15.5t100.5 39t75 61t54 72.5t36 83t22 82t11 81t4.5 68.5t0.5 54.5v837h129v-837q0 -183 -22 -281q-87 -372 -539 -373q-119 0 -213 26.5 t-153.5 63.5t-102 100.5t-63.5 115t-32 130t-12.5 121.5t-1.5 113zM446 1651v200h170v-200h-170zM446 1651v200h170v-200h-170zM850 1651v200h172v-200h-172zM850 1651v200h172v-200h-172z" />
<glyph unicode="&#xdd;" horiz-adv-x="1413" d="M59 1464h150l512 -811l518 811h152l-592 -915v-551h-148v551zM543 1661l116 262h209l-200 -262h-125z" />
<glyph unicode="&#xdf;" horiz-adv-x="1171" d="M158 0v922q0 90 1.5 144t10 127.5t24.5 117.5t46 93t73.5 75t108.5 43.5t149 17.5q55 0 107.5 -9t112 -35t103 -67t72.5 -112t29 -162q0 -56 -15.5 -105.5t-49 -96t-95.5 -81.5t-147 -53q79 -20 142.5 -51t118 -78.5t84.5 -117t30 -156.5q0 -81 -16.5 -146t-43.5 -109 t-68.5 -77t-84 -52t-97.5 -30t-102 -14.5t-104 -3.5v96q175 17 265.5 102.5t90.5 237.5q0 49 -6.5 86t-27.5 78.5t-58 72.5t-101.5 59.5t-154.5 47.5v106q164 8 243 75t79 212q0 77 -25.5 132.5t-70 86t-96.5 44.5t-114 14q-70 0 -117.5 -15.5t-77.5 -44t-46 -81.5 t-21.5 -115t-5.5 -158v-1020h-145z" />
<glyph unicode="&#xe0;" horiz-adv-x="948" d="M78 303q0 52 9.5 96t33.5 85t61 69.5t94.5 45.5t131.5 17q167 0 220 8.5t95 47.5q0 88 -8.5 145.5t-23.5 93t-46 53.5t-66 23.5t-94 5.5q-149 0 -303 -61q-22 63 -35 90q164 70 351 70q52 0 95.5 -7.5t85.5 -25t74 -49t56.5 -76t37.5 -109.5t13 -147v-678h-96l-68 76 q-87 -45 -161.5 -67.5t-188.5 -22.5q-122 0 -195 82.5t-73 234.5zM213 301q0 -113 64 -170t167 -57q146 0 279 127l4 358q-58 -15 -112.5 -22t-86.5 -8t-92 -1q-30 0 -44 -0.5t-42 -4.5t-43.5 -12t-36 -24.5t-31 -40t-18.5 -60.5t-8 -85zM342 1538h160l102 -229h-86z" />
<glyph unicode="&#xe1;" horiz-adv-x="948" d="M78 303q0 52 9.5 96t33.5 85t61 69.5t94.5 45.5t131.5 17q167 0 220 8.5t95 47.5q0 88 -8.5 145.5t-23.5 93t-46 53.5t-66 23.5t-94 5.5q-149 0 -303 -61q-22 63 -35 90q164 70 351 70q52 0 95.5 -7.5t85.5 -25t74 -49t56.5 -76t37.5 -109.5t13 -147v-678h-96l-68 76 q-87 -45 -161.5 -67.5t-188.5 -22.5q-122 0 -195 82.5t-73 234.5zM213 301q0 -113 64 -170t167 -57q146 0 279 127l4 358q-58 -15 -112.5 -22t-86.5 -8t-92 -1q-30 0 -44 -0.5t-42 -4.5t-43.5 -12t-36 -24.5t-31 -40t-18.5 -60.5t-8 -85zM311 1257l117 263h209l-201 -263 h-125z" />
<glyph unicode="&#xe2;" horiz-adv-x="948" d="M78 303q0 52 9.5 96t33.5 85t61 69.5t94.5 45.5t131.5 17q167 0 220 8.5t95 47.5q0 88 -8.5 145.5t-23.5 93t-46 53.5t-66 23.5t-94 5.5q-149 0 -303 -61q-22 63 -35 90q164 70 351 70q52 0 95.5 -7.5t85.5 -25t74 -49t56.5 -76t37.5 -109.5t13 -147v-678h-96l-68 76 q-87 -45 -161.5 -67.5t-188.5 -22.5q-122 0 -195 82.5t-73 234.5zM213 301q0 -113 64 -170t167 -57q146 0 279 127l4 358q-58 -15 -112.5 -22t-86.5 -8t-92 -1q-30 0 -44 -0.5t-42 -4.5t-43.5 -12t-36 -24.5t-31 -40t-18.5 -60.5t-8 -85zM223 1280l211 264h80l211 -264h-88 l-164 211l-162 -211h-88z" />
<glyph unicode="&#xe3;" horiz-adv-x="948" d="M78 303q0 52 9.5 96t33.5 85t61 69.5t94.5 45.5t131.5 17q167 0 220 8.5t95 47.5q0 88 -8.5 145.5t-23.5 93t-46 53.5t-66 23.5t-94 5.5q-149 0 -303 -61q-22 63 -35 90q164 70 351 70q52 0 95.5 -7.5t85.5 -25t74 -49t56.5 -76t37.5 -109.5t13 -147v-678h-96l-68 76 q-87 -45 -161.5 -67.5t-188.5 -22.5q-122 0 -195 82.5t-73 234.5zM188 1444q26 41 117 41q54 0 161 -29t165 -29q79 0 129 21v-78q-59 -47 -127 -47q-61 0 -166 26.5t-166 26.5t-111 -20zM213 301q0 -113 64 -170t167 -57q146 0 279 127l4 358q-58 -15 -112.5 -22t-86.5 -8 t-92 -1q-30 0 -44 -0.5t-42 -4.5t-43.5 -12t-36 -24.5t-31 -40t-18.5 -60.5t-8 -85z" />
<glyph unicode="&#xe4;" horiz-adv-x="948" d="M78 303q0 52 9.5 96t33.5 85t61 69.5t94.5 45.5t131.5 17q167 0 220 8.5t95 47.5q0 88 -8.5 145.5t-23.5 93t-46 53.5t-66 23.5t-94 5.5q-149 0 -303 -61q-22 63 -35 90q164 70 351 70q52 0 95.5 -7.5t85.5 -25t74 -49t56.5 -76t37.5 -109.5t13 -147v-678h-96l-68 76 q-87 -45 -161.5 -67.5t-188.5 -22.5q-122 0 -195 82.5t-73 234.5zM186 1247v201h170v-201h-170zM186 1247v201h170v-201h-170zM213 301q0 -113 64 -170t167 -57q146 0 279 127l4 358q-58 -15 -112.5 -22t-86.5 -8t-92 -1q-30 0 -44 -0.5t-42 -4.5t-43.5 -12t-36 -24.5 t-31 -40t-18.5 -60.5t-8 -85zM590 1247v201h172v-201h-172zM590 1247v201h172v-201h-172z" />
<glyph unicode="&#xe5;" horiz-adv-x="948" d="M78 303q0 52 9.5 96t33.5 85t61 69.5t94.5 45.5t131.5 17q167 0 220 8.5t95 47.5q0 88 -8.5 145.5t-23.5 93t-46 53.5t-66 23.5t-94 5.5q-149 0 -303 -61q-22 63 -35 90q164 70 351 70q52 0 95.5 -7.5t85.5 -25t74 -49t56.5 -76t37.5 -109.5t13 -147v-678h-96l-68 76 q-87 -45 -161.5 -67.5t-188.5 -22.5q-122 0 -195 82.5t-73 234.5zM197 1208q0 137 71.5 208t202.5 73q146 -1 212.5 -71.5t66.5 -209.5q0 -127 -67 -201.5t-212 -74.5q-274 0 -274 276zM213 301q0 -113 64 -170t167 -57q146 0 279 127l4 358q-58 -15 -112.5 -22t-86.5 -8 t-92 -1q-30 0 -44 -0.5t-42 -4.5t-43.5 -12t-36 -24.5t-31 -40t-18.5 -60.5t-8 -85zM240 1208q0 -53 11 -95.5t26 -68.5t39 -45t43 -28t44.5 -13.5t36.5 -5t27 -0.5h4q15 0 26.5 0.5t38.5 5.5t48 14t47 28t43 45t29 68.5t12 94.5t-12 94.5t-29 68.5t-43 45t-47 28t-48 14 t-38.5 5.5t-26.5 0.5q-14 0 -25.5 -0.5t-37 -5.5t-45 -14t-44 -28t-41 -45t-27.5 -68t-11 -95z" />
<glyph unicode="&#xe6;" horiz-adv-x="1691" d="M61 459h754q0 76 -1 120t-8 110t-19.5 104.5t-36.5 84.5t-59 70t-88 41t-122 17q-60 0 -113 -16.5t-93.5 -47t-63 -52t-47.5 -52.5l-27 20q-38 35 -61 51q158 181 405 181q250 0 410 -187q169 187 397 187q201 0 311.5 -119.5t110.5 -372.5h-754q0 -76 1 -120t8 -110 t19.5 -104.5t36.5 -84.5t59 -70t88 -41t122 -17q58 0 111 17t92 45t65 53.5t46 52.5q22 -15 48 -38.5t40 -33.5q-84 -106 -183.5 -143t-218.5 -37q-131 0 -230.5 46.5t-185.5 138.5q-167 -185 -391 -185q-200 0 -311 120.5t-111 371.5zM182 375q2 -39 13 -80t35 -83.5 t57.5 -75.5t84 -54t111.5 -21q69 0 123 19t87.5 49.5t56.5 73t33.5 84t13.5 88.5h-615zM973 682h618q-3 39 -15 80t-36.5 83.5t-58 75t-84 53.5t-109.5 21q-69 0 -123 -19t-88 -49t-57 -72.5t-33.5 -84t-13.5 -88.5z" />
<glyph unicode="&#xe7;" horiz-adv-x="1087" d="M115 535q0 122 25 215.5t70.5 156t114.5 101.5t153 56t190 17q196 0 338 -73v-115q-171 98 -338 98q-70 0 -126.5 -10t-112.5 -39.5t-93 -78.5t-60.5 -131t-23.5 -193q0 -116 22.5 -202.5t59.5 -139t92 -85t112.5 -44t129.5 -11.5q175 0 356 88q0 -99 2 -122 q-107 -31 -185 -45.5t-173 -14.5h-60l-41 -110q122 4 177 -39t55 -113q0 -64 -44 -101.5t-120 -43.5h2q-85 0 -137 12v43q46 -21 98 -21q17 0 36 5t40.5 16t35 34.5t13.5 55.5q0 127 -125 127q-49 0 -72 -2q2 2 3.5 3t3.5 3t3.5 4.5t3.5 6t5.5 9t6.5 12t8.5 17l11 21 t14.5 27.5l18 34q-247 44 -368 185t-121 387z" />
<glyph unicode="&#xe8;" horiz-adv-x="1067" d="M109 506q0 283 118 433.5t363 150.5q423 0 420 -551l-766 2q0 -71 2 -118.5t9.5 -103.5t22 -92t39.5 -72.5t61.5 -57t89.5 -33.5t122 -13q77 0 145 30t105 64t63 72q27 -21 47 -37.5t29 -23.5t14 -11q-151 -178 -403 -178q-134 0 -228 37t-148 110t-78.5 168t-26.5 224z M260 625l629 2q-3 142 -68 256q-71 112 -231 112q-69 0 -125.5 -20.5t-94 -55t-63 -82.5t-36.5 -100.5t-11 -111.5zM401 1538h160l103 -229h-86z" />
<glyph unicode="&#xe9;" horiz-adv-x="1067" d="M109 506q0 283 118 433.5t363 150.5q423 0 420 -551l-766 2q0 -71 2 -118.5t9.5 -103.5t22 -92t39.5 -72.5t61.5 -57t89.5 -33.5t122 -13q77 0 145 30t105 64t63 72q27 -21 47 -37.5t29 -23.5t14 -11q-151 -178 -403 -178q-134 0 -228 37t-148 110t-78.5 168t-26.5 224z M260 625l629 2q-3 142 -68 256q-71 112 -231 112q-69 0 -125.5 -20.5t-94 -55t-63 -82.5t-36.5 -100.5t-11 -111.5zM371 1257l116 263h209l-200 -263h-125z" />
<glyph unicode="&#xea;" horiz-adv-x="1067" d="M109 506q0 283 118 433.5t363 150.5q423 0 420 -551l-766 2q0 -71 2 -118.5t9.5 -103.5t22 -92t39.5 -72.5t61.5 -57t89.5 -33.5t122 -13q77 0 145 30t105 64t63 72q27 -21 47 -37.5t29 -23.5t14 -11q-151 -178 -403 -178q-134 0 -228 37t-148 110t-78.5 168t-26.5 224z M260 625l629 2q-3 142 -68 256q-71 112 -231 112q-69 0 -125.5 -20.5t-94 -55t-63 -82.5t-36.5 -100.5t-11 -111.5zM283 1280l211 264h79l211 -264h-88l-164 211l-161 -211h-88z" />
<glyph unicode="&#xeb;" horiz-adv-x="1067" d="M109 506q0 283 118 433.5t363 150.5q423 0 420 -551l-766 2q0 -71 2 -118.5t9.5 -103.5t22 -92t39.5 -72.5t61.5 -57t89.5 -33.5t122 -13q77 0 145 30t105 64t63 72q27 -21 47 -37.5t29 -23.5t14 -11q-151 -178 -403 -178q-134 0 -228 37t-148 110t-78.5 168t-26.5 224z M246 1247v201h170v-201h-170zM246 1247v201h170v-201h-170zM260 625l629 2q-3 142 -68 256q-71 112 -231 112q-69 0 -125.5 -20.5t-94 -55t-63 -82.5t-36.5 -100.5t-11 -111.5zM649 1247v201h172v-201h-172zM649 1247v201h172v-201h-172z" />
<glyph unicode="&#xec;" horiz-adv-x="493" d="M115 1538h159l103 -229h-86zM188 0v1061h140v-1061h-140z" />
<glyph unicode="&#xed;" horiz-adv-x="493" d="M90 1257l117 263h209l-201 -263h-125zM188 0v1061h140v-1061h-140z" />
<glyph unicode="&#xee;" horiz-adv-x="493" d="M-2 1280l211 264h80l211 -264h-88l-164 211l-162 -211h-88zM188 0v1061h140v-1061h-140z" />
<glyph unicode="&#xef;" horiz-adv-x="493" d="M-41 1247v201h170v-201h-170zM-41 1247v201h170v-201h-170zM188 0v1061h140v-1061h-140zM362 1247v201h173v-201h-173zM362 1247v201h173v-201h-173z" />
<glyph unicode="&#xf1;" horiz-adv-x="1150" d="M168 0v1061h121l12 -211q40 97 164.5 169.5t249.5 72.5q151 0 239 -114.5t88 -336.5v-641h-131v655q0 162 -65 248t-193 86q-139 0 -244.5 -94t-105.5 -217v-678h-135zM289 1444q26 41 117 41q54 0 160.5 -29t164.5 -29q79 0 129 21v-78q-59 -47 -127 -47 q-61 0 -166 26.5t-166 26.5q-60 0 -110 -20z" />
<glyph unicode="&#xf2;" horiz-adv-x="1153" d="M100 535q0 278 111 417.5t369 139.5q503 0 503 -557q0 -145 -22.5 -246.5t-77 -176.5t-148.5 -111t-233 -36q-109 0 -195.5 30.5t-143.5 82.5t-94 125.5t-53 155.5t-16 176zM242 535q0 -93 12.5 -167.5t31.5 -123.5t49.5 -84.5t59.5 -54.5t68.5 -30t69.5 -13.5t69 -2.5 q35 0 56.5 1.5t60 10.5t63.5 26t55.5 52t49 84.5t31 126.5t12.5 175q0 75 -8 137t-20 106.5t-32.5 80t-39 58t-47.5 38.5t-50 24t-53.5 12.5t-50.5 5t-49 0.5h-6q-41 0 -63.5 -1t-63 -10t-64 -25.5t-54 -50t-47 -81.5t-28.5 -123t-12 -171zM444 1538h160l103 -229h-86z" />
<glyph unicode="&#xf3;" horiz-adv-x="1153" d="M100 535q0 278 111 417.5t369 139.5q503 0 503 -557q0 -145 -22.5 -246.5t-77 -176.5t-148.5 -111t-233 -36q-109 0 -195.5 30.5t-143.5 82.5t-94 125.5t-53 155.5t-16 176zM242 535q0 -93 12.5 -167.5t31.5 -123.5t49.5 -84.5t59.5 -54.5t68.5 -30t69.5 -13.5t69 -2.5 q35 0 56.5 1.5t60 10.5t63.5 26t55.5 52t49 84.5t31 126.5t12.5 175q0 75 -8 137t-20 106.5t-32.5 80t-39 58t-47.5 38.5t-50 24t-53.5 12.5t-50.5 5t-49 0.5h-6q-41 0 -63.5 -1t-63 -10t-64 -25.5t-54 -50t-47 -81.5t-28.5 -123t-12 -171zM414 1257l116 263h209l-200 -263 h-125z" />
<glyph unicode="&#xf4;" horiz-adv-x="1153" d="M100 535q0 278 111 417.5t369 139.5q503 0 503 -557q0 -145 -22.5 -246.5t-77 -176.5t-148.5 -111t-233 -36q-109 0 -195.5 30.5t-143.5 82.5t-94 125.5t-53 155.5t-16 176zM242 535q0 -93 12.5 -167.5t31.5 -123.5t49.5 -84.5t59.5 -54.5t68.5 -30t69.5 -13.5t69 -2.5 q35 0 56.5 1.5t60 10.5t63.5 26t55.5 52t49 84.5t31 126.5t12.5 175q0 75 -8 137t-20 106.5t-32.5 80t-39 58t-47.5 38.5t-50 24t-53.5 12.5t-50.5 5t-49 0.5h-6q-41 0 -63.5 -1t-63 -10t-64 -25.5t-54 -50t-47 -81.5t-28.5 -123t-12 -171zM326 1280l211 264h79l211 -264 h-88l-164 211l-161 -211h-88z" />
<glyph unicode="&#xf5;" horiz-adv-x="1153" d="M100 535q0 278 111 417.5t369 139.5q503 0 503 -557q0 -145 -22.5 -246.5t-77 -176.5t-148.5 -111t-233 -36q-109 0 -195.5 30.5t-143.5 82.5t-94 125.5t-53 155.5t-16 176zM242 535q0 -93 12.5 -167.5t31.5 -123.5t49.5 -84.5t59.5 -54.5t68.5 -30t69.5 -13.5t69 -2.5 q35 0 56.5 1.5t60 10.5t63.5 26t55.5 52t49 84.5t31 126.5t12.5 175q0 75 -8 137t-20 106.5t-32.5 80t-39 58t-47.5 38.5t-50 24t-53.5 12.5t-50.5 5t-49 0.5h-6q-41 0 -63.5 -1t-63 -10t-64 -25.5t-54 -50t-47 -81.5t-28.5 -123t-12 -171zM291 1444q26 41 117 41 q54 0 160.5 -29t164.5 -29q79 0 129 21v-78q-59 -47 -127 -47q-61 0 -165.5 26.5t-166.5 26.5q-60 0 -110 -20z" />
<glyph unicode="&#xf6;" horiz-adv-x="1153" d="M100 535q0 278 111 417.5t369 139.5q503 0 503 -557q0 -145 -22.5 -246.5t-77 -176.5t-148.5 -111t-233 -36q-109 0 -195.5 30.5t-143.5 82.5t-94 125.5t-53 155.5t-16 176zM242 535q0 -93 12.5 -167.5t31.5 -123.5t49.5 -84.5t59.5 -54.5t68.5 -30t69.5 -13.5t69 -2.5 q35 0 56.5 1.5t60 10.5t63.5 26t55.5 52t49 84.5t31 126.5t12.5 175q0 75 -8 137t-20 106.5t-32.5 80t-39 58t-47.5 38.5t-50 24t-53.5 12.5t-50.5 5t-49 0.5h-6q-41 0 -63.5 -1t-63 -10t-64 -25.5t-54 -50t-47 -81.5t-28.5 -123t-12 -171zM289 1247v201h170v-201h-170z M289 1247v201h170v-201h-170zM692 1247v201h172v-201h-172zM692 1247v201h172v-201h-172z" />
<glyph unicode="&#xf8;" horiz-adv-x="1157" d="M100 535q0 277 114 417t374 140q212 0 319 -84l37 53h23l-45 -66q91 -68 132.5 -192.5t41.5 -267.5q0 -144 -24 -246.5t-80 -177t-151 -110.5t-233 -36q-159 0 -276 60q-8 -15 -15 -25l-24 -41h-25l45 76q-108 64 -160.5 204t-52.5 296zM248 535q0 -234 123 -408l479 780 q-12 14 -26 26t-25.5 21t-28 16t-26.5 11.5t-28.5 7.5t-26 4.5t-28 2.5t-25 1h-26h-22.5h-6q-42 0 -64.5 -1t-63.5 -10t-64.5 -25.5t-54 -50t-47 -81.5t-28.5 -123t-12 -171zM383 115q83 -56 225 -56q35 0 56.5 1.5t60 10.5t63.5 26t55.5 52t49 84.5t31 126.5t12.5 175 q0 259 -74 358z" />
<glyph unicode="&#xf9;" horiz-adv-x="1175" d="M160 403v658h139v-676q0 -168 50 -248t179 -80q93 0 179.5 42.5t145 127t58.5 191.5v643h133v-1061h-122l-11 221q-47 -123 -155 -189.5t-260 -66.5q-71 0 -129.5 23t-106 72.5t-74 136.5t-26.5 206zM457 1538h159l103 -229h-86z" />
<glyph unicode="&#xfa;" horiz-adv-x="1175" d="M160 403v658h139v-676q0 -168 50 -248t179 -80q93 0 179.5 42.5t145 127t58.5 191.5v643h133v-1061h-122l-11 221q-47 -123 -155 -189.5t-260 -66.5q-71 0 -129.5 23t-106 72.5t-74 136.5t-26.5 206zM424 1257l117 263h209l-201 -263h-125z" />
<glyph unicode="&#xfb;" horiz-adv-x="1175" d="M160 403v658h139v-676q0 -168 50 -248t179 -80q93 0 179.5 42.5t145 127t58.5 191.5v643h133v-1061h-122l-11 221q-47 -123 -155 -189.5t-260 -66.5q-71 0 -129.5 23t-106 72.5t-74 136.5t-26.5 206zM336 1280l211 264h80l211 -264h-88l-164 211l-162 -211h-88z" />
<glyph unicode="&#xfc;" horiz-adv-x="1175" d="M160 403v658h139v-676q0 -168 50 -248t179 -80q93 0 179.5 42.5t145 127t58.5 191.5v643h133v-1061h-122l-11 221q-47 -123 -155 -189.5t-260 -66.5q-71 0 -129.5 23t-106 72.5t-74 136.5t-26.5 206zM299 1247v201h170v-201h-170zM299 1247v201h170v-201h-170zM702 1247 v201h172v-201h-172zM702 1247v201h172v-201h-172z" />
<glyph unicode="&#xfd;" horiz-adv-x="1095" d="M61 1061h140l395 -1061l344 1061h139l-534 -1495h-119l100 328zM385 1257l117 263h209l-201 -263h-125z" />
<glyph unicode="&#xff;" horiz-adv-x="1095" d="M61 1061h140l395 -1061l344 1061h139l-534 -1495h-119l100 328zM260 1247v201h170v-201h-170zM260 1247v201h170v-201h-170zM664 1247v201h172v-201h-172zM664 1247v201h172v-201h-172z" />
<glyph unicode="&#x178;" horiz-adv-x="1413" d="M59 1464h150l512 -811l518 811h152l-592 -915v-551h-148v551zM418 1651v200h170v-200h-170zM418 1651v200h170v-200h-170zM821 1651v200h172v-200h-172zM821 1651v200h172v-200h-172z" />
<glyph unicode="&#x2c6;" horiz-adv-x="491" d="M-2 1280l211 264h80l211 -264h-88l-164 211l-162 -211h-88z" />
<glyph unicode="&#x2dc;" horiz-adv-x="454" d="M-37 1444q26 41 117 41q54 0 161 -29t165 -29q80 0 129 21v-78q-59 -47 -127 -47q-62 0 -166 26.5t-166 26.5q-61 0 -111 -20z" />
<glyph unicode="&#x2000;" horiz-adv-x="1003" />
<glyph unicode="&#x2001;" horiz-adv-x="2007" />
<glyph unicode="&#x2002;" horiz-adv-x="1003" />
<glyph unicode="&#x2003;" horiz-adv-x="2007" />
<glyph unicode="&#x2004;" horiz-adv-x="669" />
<glyph unicode="&#x2005;" horiz-adv-x="501" />
<glyph unicode="&#x2006;" horiz-adv-x="334" />
<glyph unicode="&#x2007;" horiz-adv-x="334" />
<glyph unicode="&#x2008;" horiz-adv-x="250" />
<glyph unicode="&#x2009;" horiz-adv-x="401" />
<glyph unicode="&#x200a;" horiz-adv-x="111" />
<glyph unicode="&#x2010;" horiz-adv-x="815" d="M137 518v105h574v-105h-574z" />
<glyph unicode="&#x2011;" horiz-adv-x="815" d="M137 518v105h574v-105h-574z" />
<glyph unicode="&#x2012;" horiz-adv-x="815" d="M137 518v105h574v-105h-574z" />
<glyph unicode="&#x2013;" horiz-adv-x="1024" d="M25 518v105h1022v-105h-1022z" />
<glyph unicode="&#x2014;" horiz-adv-x="2048" d="M293 518v105h1554v-105h-1554z" />
<glyph unicode="&#x2018;" horiz-adv-x="569" d="M186 1122q0 172 63 256.5t161 98.5v-80q-36 -4 -62.5 -17t-43 -37t-26.5 -48.5t-14.5 -62.5t-6 -67t-1.5 -73h127v-174h-178q-19 111 -19 204z" />
<glyph unicode="&#x2019;" horiz-adv-x="569" d="M182 920v73q32 3 57 15.5t40.5 26.5t26.5 42t16.5 47.5t8 58.5t3 58.5t0.5 63.5h-123v174h178q17 -136 17 -209q0 -303 -224 -350z" />
<glyph unicode="&#x201a;" horiz-adv-x="569" d="M188 -311q32 3 57 15.5t40.5 27.5t26.5 43t16.5 47.5t8 58t3 57.5t0.5 62h-123v172h178q17 -136 17 -203q0 -89 -18.5 -156.5t-51 -107t-70.5 -61t-84 -27.5v72z" />
<glyph unicode="&#x201c;" horiz-adv-x="901" d="M150 1122q0 308 225 355v-78q-31 -5 -55.5 -17t-40.5 -27t-27.5 -40t-17.5 -46t-9 -55t-3.5 -58t-0.5 -64h127v-174h-178q-20 109 -20 204zM580 1122q0 311 221 355v-78q-35 -5 -61.5 -18.5t-42.5 -37.5t-26 -48t-14.5 -62t-6 -67t-1.5 -74h123v-174h-178 q-14 140 -14 204z" />
<glyph unicode="&#x201d;" horiz-adv-x="909" d="M141 920v73q32 3 56.5 15t40.5 27.5t27.5 41.5t17 47.5t8.5 58t3.5 59.5t0.5 63h-123v174h178q17 -170 17 -209q0 -303 -226 -350zM569 920v73q32 3 57 15.5t40.5 26.5t26.5 42t16.5 47.5t8 58.5t3 58.5t0.5 63.5h-127v174h180q19 -97 19 -209q0 -310 -224 -350z" />
<glyph unicode="&#x201e;" horiz-adv-x="997" d="M180 -311q31 3 55.5 15.5t40 27.5t26.5 42t16.5 47.5t8 58t3 58.5t0.5 62h-121v172h176q18 -120 18 -203q0 -89 -18 -156.5t-50.5 -107t-70.5 -61t-84 -27.5v72zM645 -311q31 3 55 14.5t39.5 25.5t26 39.5t16 45t8 55.5t3 56.5t0.5 61.5v11q-17 0 -59 1t-62 1v172h178 q20 -120 20 -203q0 -91 -19 -158.5t-52.5 -106.5t-71 -60t-82.5 -27v72z" />
<glyph unicode="&#x2022;" horiz-adv-x="1024" d="M160 745q0 154 108 262.5t262 108.5t262.5 -108.5t108.5 -262.5t-108.5 -262t-262.5 -108t-262 108t-108 262z" />
<glyph unicode="&#x2026;" horiz-adv-x="1665" d="M190 -2v172h175v-172h-175zM793 -2v172h174v-172h-174zM1395 -2v172h172v-172h-172z" />
<glyph unicode="&#x202f;" horiz-adv-x="401" />
<glyph unicode="&#x2039;" horiz-adv-x="626" d="M145 578q0 24 25 40l348 248v-12.5v-13.5v-12t-1 -12t-2 -10.5t-3 -10t-4.5 -8.5t-6 -8t-7.5 -5l-277 -196q40 -31 144 -105t124 -86q16 -12 24 -32t8.5 -31t0.5 -37l-346 250q-27 15 -27 41z" />
<glyph unicode="&#x203a;" horiz-adv-x="636" d="M154 287v10v11t0.5 10t1 11.5l1.5 10.5t2.5 10.5t4 9.5t5.5 10t7.5 8.5t9.5 8.5q20 12 125 86.5t144 104.5l-277 196q-4 2 -7.5 5t-6 8t-4.5 8.5t-3 10t-2 10.5t-1 12v12v13.5v12.5l348 -248q24 -15 24 -40q0 -27 -26 -41z" />
<glyph unicode="&#x205f;" horiz-adv-x="501" />
<glyph unicode="&#x20ac;" horiz-adv-x="1259" d="M82 555l27 45h120q-6 124 -6.5 175t8.5 167h-149l27 43h124q114 590 590 590q70 0 148.5 -12.5t127.5 -25t124 -34.5v-127q-244 109 -400 109q-40 0 -73.5 -5.5t-77.5 -22t-81.5 -51.5t-74.5 -87.5t-67 -138t-50 -195.5h514l-14 -43h-500q-5 -96 -4.5 -166t11.5 -176h395 q-4 -31 -10 -45h-383q23 -93 57.5 -167.5t68.5 -120t77 -78.5t72.5 -48t66 -23t47.5 -8.5t26 -0.5q222 0 416 157v-143q-181 -123 -416 -123q-210 0 -369 147.5t-223 407.5h-149z" />
<glyph unicode="&#xe000;" horiz-adv-x="1064" d="M0 0v1065h1065v-1065h-1065z" />
</font>
</defs>
</svg>
