<?xml version="1.0" standalone="no"?>
<!DOCTYPE svg PUBLIC "-//W3C//DTD SVG 1.1//EN" "http://www.w3.org/Graphics/SVG/1.1/DTD/svg11.dtd" >
<svg xmlns="http://www.w3.org/2000/svg">
<metadata></metadata>
<defs>
<font id="copperplate_gothic_lightRg" horiz-adv-x="1024" >
<font-face units-per-em="2048" ascent="1638" descent="-410" />
<missing-glyph horiz-adv-x="512" />
<glyph horiz-adv-x="2048" />
<glyph horiz-adv-x="2048" />
<glyph unicode="&#xd;" horiz-adv-x="2048" />
<glyph unicode=" "  horiz-adv-x="512" />
<glyph unicode="&#x09;" horiz-adv-x="512" />
<glyph unicode="&#xa0;" horiz-adv-x="512" />
<glyph unicode="!" horiz-adv-x="699" d="M205 1338v27h289v-27q-13 -2 -17 -3q-38 -4 -41 -44l-53 -822v-15l-1 -10q0 -15 7.5 -20t46.5 -15v-27h-173v27l16 4q39 9 38 31l-1 10v15l-53 822q-2 27 -11 34.5t-47 12.5zM240 85q0 45 31.5 76.5t77.5 32.5q46 0 77.5 -32t31.5 -78q0 -44 -32.5 -76t-76.5 -32 q-45 0 -77 32t-32 77z" />
<glyph unicode="&#x22;" horiz-adv-x="1070" d="M123 1337v28h289v-28q-13 -1 -17 -1q-26 -2 -33 -8t-10 -29l-51 -396q-2 -17 5.5 -21.5t47.5 -10.5v-28h-173v28q12 2 16 2q38 4 38 20q0 3 -1 10l-51 396q-3 25 -11 30t-49 8zM658 1337v28h289v-28q-13 -1 -17 -1q-26 -2 -33 -8t-10 -29l-51 -396q-2 -17 5.5 -21.5 t47.5 -10.5v-28h-173v28q12 2 16 2q38 4 38 20q0 2 -1 10l-51 396q-4 25 -11.5 30t-48.5 8z" />
<glyph unicode="#" horiz-adv-x="1570" d="M83 281l50 258h33q3 -36 16.5 -50t45.5 -14h178l81 416h-178q-32 0 -51 -14t-36 -50h-33l50 258h33q3 -36 16.5 -50t45.5 -14h179l45 235q1 5 1 16q0 24 -10 35t-41 21l7 37h258l-7 -37q-39 -11 -55.5 -26.5t-22.5 -45.5l-46 -235h417l45 235q1 5 1 16q0 24 -10 35 t-41 21l8 37h257l-7 -37q-39 -11 -55.5 -26.5t-22.5 -45.5l-46 -235h179q31 0 50.5 14t36.5 50h33l-51 -258h-33q-3 36 -16.5 50t-45.5 14h-178l-81 -416h178q32 0 51 14t36 50h33l-50 -258h-33q-3 36 -16.5 50t-45.5 14h-178l-46 -236q-1 -7 -1 -18q0 -23 10 -34t41 -20 l-7 -37h-258l7 37q39 10 55.5 25.5t22.5 46.5l46 236h-416l-46 -236q-1 -7 -1 -18q0 -23 10 -34t41 -20l-8 -37h-257l7 37q38 10 55 25.5t23 46.5l46 236h-178q-32 0 -51 -14t-36 -50h-33zM536 475h416l81 416h-416z" />
<glyph unicode="$" horiz-adv-x="1475" d="M123 135l134 241l24 -14q-17 -36 -17 -49q0 -38 168 -111q129 -57 255 -69v496q-200 25 -292 59q-107 41 -158 119q-49 75 -49 167q0 165 131.5 268t367.5 124v126q0 31 -14 47t-50 26v32h243v-32q-36 -10 -50 -26t-14 -47v-124q209 -8 415 -94q30 -12 36 -12q16 0 44 36 l25 -12l-127 -246l-25 14q14 39 14 49q0 34 -133 81q-108 39 -249 50v-463l72 -8q152 -17 214.5 -31t111.5 -40q152 -83 152 -278q0 -187 -147.5 -299t-402.5 -118v-125q0 -30 14 -46t50 -26v-32h-243v32q36 10 50 26t14 46v128q-206 15 -391 107q-92 46 -107 46 q-13 0 -41 -34zM341 984q0 -132 166 -174q36 -9 180 -26v450q-109 -9 -185 -44q-161 -74 -161 -206zM802 130q175 8 268 65q129 81 129 207q0 127 -133 173q-46 16 -264 40v-485z" />
<glyph unicode="%" horiz-adv-x="1842" d="M68 1022q0 76 31 147t85 118q100 88 238 90q140 0 240 -90q116 -104 116 -270q0 -72 -31 -142t-85 -118q-100 -90 -239 -90t-239 90q-116 104 -116 265zM170 1022q0 -119 71.5 -196.5t181.5 -77.5q107 0 178 75q75 78 75 195q0 123 -70.5 200t-183.5 78q-105 0 -177 -75 q-75 -78 -75 -199zM286 0v28q69 4 166 124l821 1061q57 74 57 91q0 26 -47 33v28h272v-28q-69 -4 -166 -123l-812 -1062q-58 -76 -58 -91q0 -25 48 -33v-28h-281zM1063 343q0 76 31.5 147t84.5 118q100 88 238 90q140 0 240 -90q116 -104 116 -270q0 -72 -31 -142t-85 -118 q-100 -90 -239 -90t-239 90q-116 104 -116 265zM1165 343q0 -119 71.5 -196.5t181.5 -77.5q107 0 178 75q75 78 75 195q0 123 -70.5 200t-183.5 78q-105 0 -177 -75q-75 -78 -75 -199z" />
<glyph unicode="&#x26;" horiz-adv-x="1528" d="M93 399q0 88 41.5 168t116.5 136q71 53 193 90q-174 87 -174 254q0 155 121 252q110 90 288 90q211 0 326 -120q91 -94 91 -225q0 -98 -55.5 -170.5t-159.5 -111.5q162 -75 223 -246q145 339 369 367v-244h-27q-3 49 -24 49q-42 0 -113 -86q-52 -63 -137 -222 q55 -130 129 -183q61 -45 111 -45q18 0 22.5 6.5t11.5 44.5h27v-203q-162 3 -255 57.5t-144 177.5q-158 -259 -483 -259q-232 0 -370 132q-128 124 -128 291zM250 412q0 -120 77 -196q104 -104 274 -104q161 0 285 109q97 84 97 163q0 48 -31.5 110.5t-79.5 108.5 q-101 97 -263 99q-158 0 -268 -93q-91 -77 -91 -197zM420 1050q0 -95 73 -152q82 -64 203 -64q114 0 184 61q66 57 66 143q0 90 -62 151q-77 76 -211 77q-104 0 -172 -48q-81 -59 -81 -168z" />
<glyph unicode="'" horiz-adv-x="535" d="M123 1337v28h289v-28q-13 -1 -17 -1q-26 -2 -33 -8t-10 -29l-51 -396q-2 -17 5.5 -21.5t47.5 -10.5v-28h-173v28q12 2 16 2q38 4 38 20q0 3 -1 10l-51 396q-3 25 -11 30t-49 8z" />
<glyph unicode="(" horiz-adv-x="649" d="M137 682q0 485 458 847l54 -59q-111 -89 -213 -267q-139 -242 -139 -521q0 -295 158 -553q94 -155 194 -234l-54 -59q-458 361 -458 846z" />
<glyph unicode=")" horiz-adv-x="649" d="M0 -105q112 89 213 266q139 242 139 521q0 295 -158 554q-95 155 -194 234l54 59q458 -362 458 -847t-458 -846z" />
<glyph unicode="*" horiz-adv-x="858" d="M123 1199l69 210l26 -8q-1 -8 -1 -12q0 -29 34.5 -51.5t129.5 -54.5q-1 107 -13.5 144.5t-48.5 47.5v27h221v-27q-37 -10 -49 -47.5t-13 -144.5q99 35 131.5 56t32.5 51q0 4 -1 11l27 9l68 -210l-27 -8q-19 31 -54 31q-44 0 -147 -32q58 -76 85 -101t50 -25q10 0 28 7 l16 -22l-178 -130l-16 23q17 21 17 37q0 39 -80 154q-81 -117 -81 -154q0 -16 18 -38l-16 -22l-179 130l17 22q17 -7 28 -7q41 0 134 126q-106 32 -147 32q-33 0 -55 -32z" />
<glyph unicode="+" horiz-adv-x="1570" d="M238 554v258h34q22 -37 54.5 -50.5t96.5 -13.5h298v295q0 64 -14.5 97t-50.5 54v36h258v-36q-36 -22 -49.5 -54t-13.5 -97v-295h294q65 0 98.5 14t53.5 50h36v-258h-36q-22 37 -54 50.5t-97 13.5h-295v-298q0 -64 13.5 -96t49.5 -55v-33h-258v34q37 22 51 54.5t14 96.5 v297h-299q-64 0 -96 -13.5t-55 -50.5h-33z" />
<glyph unicode="," horiz-adv-x="573" d="M177 83q0 49 29.5 80.5t75.5 31.5q52 0 83 -43t31 -115q0 -89 -42.5 -152t-138.5 -117l-30 35q66 41 96 80.5t40 98.5q-27 -6 -42 -6q-46 0 -74 29.5t-28 77.5z" />
<glyph unicode="-" horiz-adv-x="407" d="M0 431v258h23q8 -37 19.5 -50.5t33.5 -13.5h254q22 0 34 14t19 50h24v-258h-24q-8 37 -19 50.5t-34 13.5h-254q-22 0 -33.5 -13.5t-19.5 -50.5h-23z" />
<glyph unicode="." horiz-adv-x="573" d="M177 85q0 45 31.5 76.5t77.5 32.5q46 0 77.5 -32t31.5 -78q0 -44 -32.5 -76t-76.5 -32q-45 0 -77 32.5t-32 76.5z" />
<glyph unicode="/" horiz-adv-x="1460" d="M96 0v28q69 4 163 124l794 1061q54 73 54 90q0 27 -48 35v27h307v-27q-69 -4 -163 -124l-785 -1062q-55 -74 -55 -90q0 -26 48 -34v-28h-315z" />
<glyph unicode="0" horiz-adv-x="1475" d="M91 683q0 216 109 397q98 164 264 245q126 62 272 64q254 0 436 -179q95 -93 151 -228q60 -144 60 -309q0 -206 -109 -388q-99 -164 -264 -245q-130 -64 -273 -64q-169 0 -317 88q-158 93 -246 269q-83 164 -83 350zM229 683q0 -252 151 -415q143 -155 357 -155t357 155 q151 163 151 407q0 262 -151 422q-144 153 -358 155q-212 0 -356 -155q-151 -162 -151 -414z" />
<glyph unicode="1" horiz-adv-x="1475" d="M482 1006v256h32q6 -45 11 -53t25 -8q47 0 105 35t58 64q0 20 -56 31v34h267v-34q-38 -9 -51 -26t-13 -58v-1129q0 -41 13 -57.5t51 -26.5v-34h-278v34q38 9 51 26t13 58v1001q-84 -52 -147 -61q-28 -4 -35 -11.5t-14 -40.5h-32z" />
<glyph unicode="2" horiz-adv-x="1475" d="M140 1142l23 22q39 -26 59 -26q11 0 29 19q218 232 536 232q213 0 350 -110q142 -113 142 -289q0 -174 -135 -289q-93 -79 -308 -185q-164 -81 -225.5 -118t-122.5 -94q-85 -79 -120 -174h849q42 0 59.5 13t26.5 51h32v-258h-32q-9 38 -26.5 51t-59.5 13h-938 q-42 0 -59.5 -13t-26.5 -51h-32q1 107 31 188.5t100 169.5q77 98 186 174t306 169q118 57 172.5 91t96.5 79q69 74 69 172q0 109 -80 180q-105 94 -275 94q-192 0 -341 -126q-86 -74 -86 -106q0 -23 27 -56l-22 -23z" />
<glyph unicode="3" horiz-adv-x="1475" d="M96 128l146 242l27 -16q-11 -26 -11 -39q0 -20 33 -49q82 -72 206 -112.5t262 -40.5q211 0 328 95q43 35 68.5 89t25.5 109q0 114 -88 184q-96 76 -298 76h-128q-42 0 -59.5 -13t-26.5 -51h-32v258h32q9 -38 26.5 -51t59.5 -13h106q103 0 161 12t104 44q82 56 82 154 t-87 163q-111 84 -289 84q-211 0 -371 -130q-72 -59 -72 -90q0 -12 18 -45l-23 -22l-181 206l23 22q33 -25 48 -25q11 0 72 44q128 94 245 135t254 41q233 0 383 -115q64 -49 100.5 -118t36.5 -143q0 -195 -226 -275q111 -28 176 -83q111 -96 111 -250q0 -188 -155 -304 q-168 -125 -434 -125q-143 0 -271.5 36t-272.5 116q-24 14 -32 14q-19 0 -50 -31z" />
<glyph unicode="4" horiz-adv-x="1475" d="M99 223v165l768 892q12 14 12 23q0 16 -49 28v34h357v-34q-38 -9 -51 -26t-13 -58v-830h135q42 0 59.5 13t26.5 51h32v-258h-32q-9 38 -26.5 51t-59.5 13h-135v-169q0 -40 13 -57t51 -27v-34h-278v34q38 10 51 26.5t13 57.5v169h-756q-42 0 -59.5 -13t-26.5 -51h-32z M300 417h673v795z" />
<glyph unicode="5" horiz-adv-x="1475" d="M125 172l166 218l25 -20q-17 -31 -17 -49q0 -27 87 -89q165 -119 385 -119q228 0 350 131q85 91 85 227q0 142 -100 234q-119 110 -311 110q-181 0 -314 -85q-72 -46 -72 -70q0 -20 20 -44l-19 -25l-270 209l22 23h9q36 0 46 17.5t10 78.5v328q0 42 -13 59.5t-51 26.5v32 h997q42 0 59.5 13t26.5 52h32v-258h-32q-9 37 -26.5 50t-59.5 13h-783v-424q181 127 422 127q246 0 399 -120q165 -129 165 -344t-177 -361q-164 -137 -415 -137q-154 0 -277 42t-263 143q-22 16 -35 16q-16 0 -45 -22z" />
<glyph unicode="6" horiz-adv-x="1475" d="M146 652q0 204 93 382q96 183 268 277q144 78 308 78q94 0 163 -18t200 -77q51 -23 68 -23q18 0 44 31l28 -16l-129 -243l-27 17q7 28 7 42q0 33 -64 75q-125 82 -285 82q-203 0 -346 -135q-173 -163 -173 -440q0 -21 2 -63q187 280 514 280q228 0 376 -127 q150 -129 150 -326t-150 -331q-158 -141 -408 -141q-293 0 -468 194q-86 95 -131 230q-40 121 -40 252zM371 438q0 -53 29 -113t77 -105q114 -107 300 -107q189 0 313 108q96 83 96 210q0 148 -108 239q-111 94 -290 95q-163 0 -283 -93q-62 -48 -98 -110.5t-36 -123.5z" />
<glyph unicode="7" horiz-adv-x="1475" d="M93 1165v265h32q9 -39 26.5 -52t59.5 -13h971q42 0 59.5 13t26.5 52h32v-187l-646 -1151q-12 -21 -12 -32q0 -23 61 -26v-34h-307v34q36 4 55 14.5t33 34.5l647 1145h-920q-42 0 -59.5 -12.5t-26.5 -50.5h-32z" />
<glyph unicode="8" horiz-adv-x="1475" d="M109 394q0 116 72 204t204 132q-93 32 -143 80q-91 86 -91 211q0 119 84 209q147 159 502 159q259 0 417 -91q82 -48 129 -126q40 -68 40 -151q0 -104 -59 -177.5t-175 -113.5q88 -29 144 -74q132 -105 132 -262q0 -106 -66 -204q-145 -214 -562 -214q-316 0 -485 132 q-66 51 -104.5 128.5t-38.5 157.5zM266 390q0 -121 110 -193q129 -84 361 -84t361 84q51 33 80.5 84t29.5 105q0 125 -110 196q-128 83 -364 84q-229 0 -358 -84q-110 -71 -110 -192zM301 1020q0 -101 102 -161q120 -70 334 -70t335 70q101 59 101 158q0 112 -115 173 t-324 62q-211 0 -331 -70q-102 -59 -102 -162z" />
<glyph unicode="9" horiz-adv-x="1475" d="M117 121l150 228l26 -18q-12 -28 -12 -44q0 -22 36 -49q175 -126 363 -126q196 0 333 125q171 158 171 454q0 22 -1 52q-156 -271 -503 -271q-231 0 -379 131q-149 130 -149 322q0 145 89 259q83 107 231 162q114 43 244 43q203 0 358 -104q146 -97 215 -274 q55 -141 55 -302q0 -195 -78 -366q-88 -193 -267 -290q-143 -77 -319 -77q-112 0 -207.5 29t-222.5 102q-47 27 -55 27q-23 0 -52 -32zM308 919q0 -129 103 -215q113 -96 289 -96q194 0 321 107q100 85 100 206q0 113 -79 197q-123 132 -333 134q-184 0 -305 -113 q-96 -91 -96 -220z" />
<glyph unicode=":" horiz-adv-x="573" d="M177 85q0 45 31.5 76.5t77.5 32.5q46 0 77.5 -32t31.5 -78q0 -44 -32.5 -76t-76.5 -32q-45 0 -77 32.5t-32 76.5zM177 1034q0 45 31.5 76.5t77.5 32.5q46 0 77.5 -32t31.5 -78q0 -44 -32.5 -76t-76.5 -32q-45 0 -77 32.5t-32 76.5z" />
<glyph unicode=";" horiz-adv-x="573" d="M177 83q0 49 29.5 80.5t75.5 31.5q52 0 83 -43t31 -115q0 -89 -42.5 -152t-138.5 -117l-30 35q66 41 96 80.5t40 98.5q-27 -6 -42 -6q-46 0 -74 29.5t-28 77.5zM177 1034q0 45 31.5 76.5t77.5 32.5q46 0 77.5 -32t31.5 -78q0 -44 -32.5 -76t-76.5 -32q-45 0 -77 32.5 t-32 76.5z" />
<glyph unicode="&#x3c;" d="M68 616v134l887 417v-154l-721 -330l721 -330v-155z" />
<glyph unicode="=" horiz-adv-x="1570" d="M238 349v258h34q22 -37 54.5 -50.5t96.5 -13.5h722q65 0 98.5 14t53.5 50h36v-258h-36q-22 37 -54 50.5t-97 13.5h-723q-65 0 -97.5 -13.5t-54.5 -50.5h-33zM238 758v258h34q22 -37 54 -50.5t97 -13.5h722q65 0 98 14t54 50h36v-258h-36q-22 37 -54 50.5t-97 13.5h-723 q-65 0 -97 -13.5t-55 -50.5h-33z" />
<glyph unicode="&#x3e;" d="M69 198v155l721 330l-721 330v154l887 -417v-134z" />
<glyph unicode="?" horiz-adv-x="1051" d="M68 1220l23 22l25 -15q13 -8 20 -8q10 0 34 19q178 151 373 151q163 0 267 -101q91 -89 91 -220q0 -97 -57 -176q-29 -40 -136 -148q-55 -56 -89 -133t-34 -145q0 -25 11 -34.5t45 -14.5v-27h-242v27q35 2 46 13.5t13 49.5q4 109 43 188q22 44 42.5 71.5t126.5 154.5 q74 89 74 166q0 73 -39 122q-66 84 -183 84q-120 0 -215 -89q-52 -49 -52 -89q0 -15 21 -45l-23 -22zM420 84q0 44 31 75t76 32q46 0 77 -31.5t31 -77.5q0 -43 -32 -74.5t-76 -31.5t-75.5 32t-31.5 76z" />
<glyph unicode="@" horiz-adv-x="1696" d="M86 679q0 209 117 381q125 184 356 270q159 59 331 59q310 0 520 -180q193 -166 193 -427q0 -237 -139 -348q-85 -68 -189 -68q-78 0 -121.5 23t-86.5 88q-65 -49 -158.5 -78t-191.5 -29q-124 0 -200 60q-84 68 -84 183q0 130 94 234q62 69 155.5 108t196.5 39 q141 0 245 -98l20 72h137l-115 -459q-2 -9 -2 -21q0 -44 63 -44q61 0 135 49q48 31 76 105t28 167q0 197 -140 334q-94 91 -220 139q-113 42 -229 42q-175 0 -337 -91q-170 -95 -253 -246q-65 -119 -65 -268q0 -251 169 -419q88 -88 201 -129t265 -41q84 0 178.5 18.5 t156.5 46.5q24 12 24 42q0 5 -1 16l20 6l66 -219l-23 -6q-25 48 -54 48q-12 0 -129 -32q-112 -30 -263 -30q-313 0 -508 168q-122 106 -187 270q-51 131 -51 265zM569 639q-3 -75 48.5 -121.5t137.5 -46.5q140 0 230 70t90 163q0 91 -54.5 139.5t-157.5 49.5 q-111 0 -192 -63q-97 -74 -102 -191z" />
<glyph unicode="A" horiz-adv-x="1510" d="M6 0v32q41 7 62.5 30t56.5 100l500 1079q18 39 18 53q0 26 -49 39v32h332v-32q-49 -16 -49 -42q0 -11 18 -50l479 -1040q53 -115 70 -135t74 -34v-32h-324v32q58 8 58 44q0 16 -22 62l-111 245h-731l-120 -259q-17 -37 -17 -52q0 -30 59 -40v-32h-304zM447 513h613 l-307 674z" />
<glyph unicode="B" horiz-adv-x="1594" d="M150 0v32q38 10 51 27t13 59v1129q0 42 -13 59.5t-51 26.5v32h814q120 0 198.5 -19t138.5 -63q138 -99 138 -284q0 -197 -193 -290q238 -80 238 -330q0 -121 -64 -213q-63 -91 -170 -128.5t-305 -37.5h-795zM371 130h548q118 0 175 7.5t106 29.5q60 28 93.5 84t33.5 130 q0 98 -59 167q-49 57 -125 77.5t-234 20.5h-538v-516zM371 776h526q112 0 167.5 7t102.5 26q58 24 90 74t32 116q0 88 -57 150q-46 49 -119.5 67.5t-225.5 18.5h-516v-459z" />
<glyph unicode="C" horiz-adv-x="1735" d="M116 681q0 246 142 426q222 282 665 282q293 0 567 -155q18 -10 25 -10q13 0 47 38l27 -15l-148 -247l-27 16q9 30 9 47q0 41 -128 103q-176 86 -384 86q-280 0 -454 -155q-177 -158 -177 -409q0 -250 184 -415q178 -161 439 -161q255 0 450 149q88 67 88 95q0 14 -17 46 l24 19l178 -216l-25 -20q-28 25 -46 25q-11 0 -38 -21q-92 -69 -152.5 -103.5t-132.5 -58.5q-149 -51 -328 -51q-345 0 -561 192q-227 201 -227 513z" />
<glyph unicode="D" horiz-adv-x="1686" d="M150 0v32q36 10 50 26t14 46v1157q0 30 -14 46t-50 26v32h720q245 0 375 -68q164 -85 250 -262q75 -155 75 -352q0 -233 -101 -402q-91 -150 -230.5 -215.5t-368.5 -65.5h-720zM371 130h493q217 0 322 67q124 80 182 245q38 110 38 241q0 238 -121 394q-67 86 -163 122 t-258 36h-493v-1105z" />
<glyph unicode="E" horiz-adv-x="1474" d="M150 0v32q39 10 51.5 27t12.5 59v1129q0 42 -13 59t-51 27v32h1083q42 0 59 13t27 52h32v-258h-32q-9 37 -26.5 50t-59.5 13h-862v-468h565q42 0 59.5 13t26.5 51h32v-258h-32q-9 38 -26.5 51t-59.5 13h-565v-507h875q42 0 59.5 13t26.5 51h32v-258h-31q-10 38 -27.5 51 t-59.5 13h-1096z" />
<glyph unicode="F" horiz-adv-x="1460" d="M150 0v32q38 10 51 27t13 59v1129q0 42 -13 59.5t-51 26.5v32h1110q42 0 59.5 13t26.5 52h32v-258h-32q-9 38 -26.5 50.5t-59.5 12.5h-889v-466h592q42 0 59.5 13t26.5 51h32v-258h-32q-9 38 -26.5 51t-59.5 13h-592v-521q0 -42 12.5 -59t51.5 -27v-32h-285z" />
<glyph unicode="G" horiz-adv-x="1720" d="M116 685q0 231 135 410q125 165 336 241q149 53 320 53q150 0 278 -36t276 -119q43 -24 53 -24q16 0 49 42l27 -18l-153 -244l-26 18q18 30 18 45q0 31 -107 88q-206 112 -422 112q-251 0 -423 -141q-197 -160 -197 -432q0 -265 188 -422q173 -145 442 -145 q142 0 270.5 44.5t216.5 124.5v252h-323q-42 0 -59.5 -13t-26.5 -51h-32v258h32q9 -38 26.5 -51t59.5 -13h537v-32q-38 -10 -51 -27t-13 -59v-177q0 -42 13 -59t51 -27v-28q-113 -101 -213 -157q-217 -122 -495 -122q-342 0 -553 185q-104 91 -165 218q-69 145 -69 306z" />
<glyph unicode="H" horiz-adv-x="1677" d="M150 0v32q39 10 51.5 27t12.5 59v1129q0 42 -13 59.5t-51 26.5v32h285v-32q-38 -10 -51 -27t-13 -59v-480h935v480q0 42 -13 59.5t-51 26.5v32h285v-32q-38 -10 -51 -27t-13 -59v-1129q0 -41 13 -58.5t51 -27.5v-32h-285v32q38 10 51 27t13 59v519h-935v-519 q0 -42 12.5 -59t51.5 -27v-32h-285z" />
<glyph unicode="I" horiz-adv-x="586" d="M150 0v32q39 10 51.5 27t12.5 59v1129q0 42 -13 59.5t-51 26.5v32h285v-32q-38 -10 -51 -27t-13 -59v-1129q0 -42 12.5 -59t51.5 -27v-32h-285z" />
<glyph unicode="J" horiz-adv-x="1192" d="M7 61l118 254l29 -14q-11 -32 -11 -45q0 -29 78 -69q147 -75 306 -75q121 0 203 45.5t105 126.5q13 45 13 223v740q0 42 -13 59.5t-51 26.5v32h285v-32q-38 -10 -51 -27.5t-13 -58.5v-775q0 -131 -8 -185t-36 -106q-56 -104 -184 -158q-110 -47 -250 -47 q-105 0 -179.5 17.5t-217.5 76.5q-33 14 -46 14q-16 0 -48 -37z" />
<glyph unicode="K" horiz-adv-x="1527" d="M150 0v32q38 10 51 27t13 59v1129q0 42 -13 59.5t-51 26.5v32h285v-32q-38 -10 -51 -27t-13 -59v-567l736 576q39 30 39 49q0 22 -38 28v32h361v-32q-60 -4 -118 -49l-554 -431l610 -772q22 -28 41 -37.5t58 -11.5v-32h-333v32q43 10 43 29q0 12 -44 69l-493 631 l-308 -237v-406q0 -41 13 -58.5t51 -27.5v-32h-285z" />
<glyph unicode="L" horiz-adv-x="1389" d="M150 0v32q39 10 51.5 27t12.5 59v1129q0 42 -13 59t-51 27v32h285v-32q-38 -10 -51 -27t-13 -59v-1117h872q42 0 59.5 13t26.5 51h32v-258h-32q-9 38 -26.5 51t-59.5 13h-1093z" />
<glyph unicode="M" horiz-adv-x="1880" d="M150 0v32q38 10 51 27t13 59v1129q0 42 -13 59.5t-51 26.5v32h354v-32q-49 -17 -49 -42q0 -12 33 -77l454 -901l456 909q24 48 24 68q0 26 -49 43v32h357v-32q-38 -10 -51 -27t-13 -59v-1129q0 -41 13 -58.5t51 -27.5v-32h-285v32q39 10 51.5 27t12.5 59v1029l-579 -1147 l-573 1147v-1029q0 -41 13 -58.5t51 -27.5v-32h-271z" />
<glyph unicode="N" horiz-adv-x="1722" d="M150 0v32q39 10 51.5 27t12.5 59v1129q0 42 -13 59.5t-51 26.5v32h392v-32q-47 -16 -47 -45q0 -20 47 -75l822 -962v996q0 42 -13 59.5t-51 26.5v32h271v-32q-38 -9 -51 -26.5t-13 -59.5v-1129q0 -42 13 -59t51 -27v-32h-315v32q46 12 46 41q0 22 -42 72l-903 1047v-1074 q0 -41 13 -58.5t51 -27.5v-32h-271z" />
<glyph unicode="O" horiz-adv-x="1865" d="M116 683q0 203 110 374q120 185 340 270q154 59 364 62q361 0 582 -189q124 -105 186 -257q51 -125 51 -269q0 -195 -111 -365q-122 -188 -339 -271q-162 -62 -367 -62q-359 0 -579 189q-123 106 -186 257q-51 124 -51 261zM280 683q0 -240 164 -398q178 -172 488 -172 q311 0 490 172q163 158 163 390q0 251 -163 405q-98 92 -210 129q-124 42 -282 43q-307 0 -486 -172q-164 -158 -164 -397z" />
<glyph unicode="P" horiz-adv-x="1479" d="M150 0v32q36 10 50 26t14 47v1156q0 30 -14 46t-50 26v32h718q151 0 235 -16t150 -58q69 -42 111 -115q47 -82 47 -184q0 -140 -86 -240q-66 -77 -167.5 -107.5t-289.5 -30.5h-497v-509q0 -31 14 -47t50 -26v-32h-285zM371 744h512q114 0 169.5 9t99.5 35q102 60 102 201 q0 142 -102 202q-44 26 -99 35t-170 9h-512v-491z" />
<glyph unicode="Q" horiz-adv-x="1865" d="M116 683q0 204 111 373q123 188 339 271q162 62 367 62q359 0 579 -189q124 -106 186 -257q51 -124 51 -261q0 -180 -86.5 -333.5t-241.5 -249.5l143 -107q18 -14 34 -14q12 0 46 32l26 -20l-178 -222l-24 27q23 38 23 52q0 20 -19 34l-190 151q-165 -56 -352 -56 q-356 0 -577 189q-124 106 -186 257q-51 125 -51 261zM280 683q0 -240 164 -398q178 -172 483 -172q109 0 222 24l-53 40q-38 29 -84 48.5t-77 19.5q-45 0 -90 -30l-18 27q95 62 194 62q129 0 276 -111q288 167 288 489q0 240 -163 398q-179 172 -489 172q-311 0 -489 -172 q-164 -158 -164 -397z" />
<glyph unicode="R" horiz-adv-x="1574" d="M150 0v32q38 10 51 27t13 59v1129q0 42 -13 59.5t-51 26.5v32h749q154 0 243.5 -16.5t155.5 -57.5q68 -42 110 -115q48 -83 48 -187q0 -156 -103.5 -254.5t-284.5 -112.5l347 -540q31 -50 90 -50v-32h-316v32q49 8 49 28q0 10 -35 65l-310 490h-522v-497q0 -41 13 -58.5 t51 -27.5v-32h-285zM371 744h553q113 0 170.5 9.5t101.5 34.5q103 60 103 201q0 142 -106 202q-47 26 -104.5 35t-178.5 9h-539v-491z" />
<glyph unicode="S" horiz-adv-x="1532" d="M82 144l150 251l28 -16q-19 -40 -19 -54q0 -32 128 -99q115 -60 221.5 -86.5t231.5 -26.5q253 0 384 111q87 74 87 176q0 134 -149 185q-48 17 -99.5 21.5t-292.5 13.5q-172 7 -269.5 26t-173.5 62q-71 40 -112.5 112t-41.5 157q0 145 108 249q80 76 221 119.5t309 43.5 q137 0 254.5 -27t265.5 -93q33 -14 41 -14q18 0 49 40l28 -14l-143 -258l-28 15q17 45 17 56q0 30 -74 65q-201 94 -426 94q-185 0 -322 -69q-66 -34 -104.5 -88t-38.5 -114q0 -50 30 -94.5t79 -66.5q54 -25 127.5 -34.5t239.5 -14.5q230 -7 329 -21.5t163 -50.5 q170 -95 170 -289q0 -185 -154 -303q-171 -132 -471 -132q-173 0 -302 35t-308 129q-50 23 -59 23q-15 0 -47 -36z" />
<glyph unicode="T" horiz-adv-x="1358" d="M20 1172v258h32q9 -39 26.5 -52t59.5 -13h1081q42 0 59.5 13t26.5 52h32v-258h-32q-9 38 -26.5 50.5t-59.5 12.5h-462v-1117q0 -41 13 -58.5t51 -27.5v-32h-285v32q38 10 51 27t13 59v1117h-462q-42 0 -59.5 -12.5t-26.5 -50.5h-32z" />
<glyph unicode="U" horiz-adv-x="1617" d="M123 1333v32h285v-32q-38 -10 -51 -27.5t-13 -58.5v-755q0 -134 14 -188.5t58 -94.5q107 -96 399 -96q318 0 417 113q33 38 44 90.5t11 175.5v755q0 41 -13 58.5t-51 27.5v32h271v-32q-38 -9 -51 -26.5t-13 -59.5v-786q0 -145 -28 -221q-52 -136 -195.5 -200t-397.5 -64 q-380 0 -520 147q-57 59 -79.5 134.5t-22.5 203.5v786q0 42 -13 59.5t-51 26.5z" />
<glyph unicode="V" horiz-adv-x="1467" d="M7 1333v32h326v-32q-59 -14 -59 -52q0 -34 26 -92l439 -1011l442 1011q28 62 28 92q0 38 -58 52v32h309v-32q-47 -14 -64.5 -37t-65.5 -133l-440 -992q-25 -59 -25 -85q0 -42 57 -54v-32h-380v32q57 12 57 56q0 24 -26 83l-448 1022q-37 83 -55 105t-63 35z" />
<glyph unicode="W" horiz-adv-x="2168" d="M-7 1333v32h320v-32q-60 -7 -60 -51q0 -16 27 -93l340 -964l337 964q29 85 29 98q0 36 -57 46v32h348v-32q-57 -14 -57 -51q0 -15 27 -93l331 -964l328 964q24 72 24 95q0 38 -56 49v32h301v-32q-49 -10 -71.5 -38.5t-55.5 -126.5l-349 -1005q-20 -58 -20 -77 q0 -40 57 -54v-32h-326v32q57 13 57 55q0 13 -20 68l-357 1005l-346 -997q-20 -59 -20 -82q0 -33 57 -49v-32h-331v32q57 11 57 49q0 21 -22 82l-365 1005q-38 103 -58.5 129.5t-68.5 35.5z" />
<glyph unicode="X" horiz-adv-x="1407" d="M7 0v32q41 6 79.5 34.5t84.5 88.5l434 564l-340 435q-94 124 -119 147.5t-67 31.5v32h348v-32q-49 -15 -49 -44q0 -28 41 -81l283 -366l283 366q48 62 48 90q0 27 -48 35v32h325v-32q-41 -8 -83 -46.5t-114 -132.5l-324 -424l449 -575q93 -118 163 -123v-32h-350v32 q48 8 48 34q0 19 -55 89l-351 451l-349 -451q-56 -72 -56 -87q0 -24 48 -36v-32h-329z" />
<glyph unicode="Y" horiz-adv-x="1333" d="M-15 1333v32h346v-32q-47 -12 -47 -39q0 -33 47 -97l347 -472l346 488q44 62 44 84q0 25 -44 36v32h322v-32q-49 -9 -84 -44q-72 -76 -93 -107l-418 -578v-486q0 -41 13 -58.5t51 -27.5v-32h-285v32q38 10 51 27t13 59v486l-441 578q-72 94 -99.5 119t-68.5 32z" />
<glyph unicode="Z" horiz-adv-x="1324" d="M55 0v29l941 1206h-812q-42 0 -59.5 -13t-26.5 -50h-32v258h32q9 -39 26.5 -52t59.5 -13h1079v-28l-938 -1207h827q42 0 59.5 13t26.5 51h32v-258h-32q-9 38 -26.5 51t-59.5 13h-1097z" />
<glyph unicode="[" horiz-adv-x="649" d="M137 -130q38 9 51 26t13 58v1457q0 41 -13 58t-51 26v34h399q41 0 58.5 13t27.5 51h27v-238h-27q-9 38 -26.5 51.5t-59.5 13.5h-192v-1475h192q41 0 58.5 13.5t27.5 51.5h27v-238h-27q-9 38 -27 51t-59 13h-399v34z" />
<glyph unicode="\" horiz-adv-x="1460" d="M96 1338v27h307v-27q-48 -8 -48 -35q0 -17 54 -90l793 -1061q94 -120 163 -124v-28h-315v28q48 8 48 34q0 15 -55 90l-784 1062q-94 120 -163 124z" />
<glyph unicode="]" horiz-adv-x="649" d="M0 10h27q10 -38 27.5 -51.5t58.5 -13.5h192v1475h-192q-42 0 -59.5 -13.5t-26.5 -51.5h-27v238h27q10 -38 27.5 -51t58.5 -13h399v-34q-38 -9 -51 -26t-13 -58v-1457q0 -41 13 -58t51 -26v-34h-399q-41 0 -59 -13t-27 -51h-27v238z" />
<glyph unicode="^" d="M65 768l358 601h177l358 -601h-148l-300 494l-299 -494h-146z" />
<glyph unicode="_" d="M0 -147h1024v-103h-1024v103z" />
<glyph unicode="`" d="M277 1506v27h232v-27q-27 -3 -27 -22q0 -6 3 -12l77 -163q11 -24 19 -30t30 -6v-27h-173v27h5q20 0 20 15q0 9 -6 18l-129 173q-17 24 -51 27z" />
<glyph unicode="a" horiz-adv-x="1267" d="M5 0v27q40 7 62.5 31.5t53.5 93.5l371 806q31 67 31 92q0 35 -50 43v27h325v-27q-50 -11 -50 -43q0 -19 40 -107l356 -775q36 -77 62 -106t66 -35v-27h-292v27q47 10 47 34q0 12 -24 66l-86 188h-587l-85 -188q-16 -35 -16 -52q0 -34 52 -48v-27h-276zM378 424h492 l-245 548z" />
<glyph unicode="b" horiz-adv-x="1325" d="M120 0v27q38 10 51 27.5t13 58.5v894q0 42 -13 59t-51 27v27h672q105 0 170 -13.5t113 -45.5q58 -37 91.5 -102t33.5 -138q0 -154 -160 -234q197 -80 197 -275q0 -142 -100 -227q-56 -47 -129 -66t-195 -19h-693zM327 109h446q106 0 156 8.5t90 33.5q81 51 81 159 q0 121 -94 178q-40 25 -91.5 34t-154.5 9h-433v-422zM327 640h425q101 0 148.5 7.5t85.5 29.5q77 43 77 139q0 107 -89 158q-39 22 -87.5 29.5t-146.5 7.5h-413v-371z" />
<glyph unicode="c" horiz-adv-x="1443" d="M93 562q0 275 215 443q179 139 450 139q240 0 459 -118q19 -10 29 -10q21 0 47 34l24 -13l-125 -215l-23 15q7 26 7 40q0 21 -40 47q-161 104 -378 104q-212 0 -355 -117q-160 -131 -160 -343q0 -230 177 -367q139 -109 332 -109q218 0 379 127q63 50 63 73q0 17 -17 51 l23 15l156 -200l-21 -18q-35 31 -50 31q-8 0 -24 -13q-123 -96 -246.5 -139t-276.5 -43q-267 0 -440 144q-87 72 -139 171q-66 126 -66 271z" />
<glyph unicode="d" horiz-adv-x="1401" d="M120 0v27q39 10 51.5 27.5t12.5 58.5v894q0 41 -12.5 58.5t-51.5 27.5v27h566q227 0 338 -53q138 -67 216 -222q68 -134 68 -285q0 -177 -90 -325q-78 -129 -197.5 -182t-334.5 -53h-566zM327 109h351q199 0 291 54q102 59 152 186q37 96 37 211q0 205 -105 328 q-58 67 -143.5 95t-231.5 28h-351v-902z" />
<glyph unicode="e" horiz-adv-x="1221" d="M120 0v27q39 10 51.5 27.5t12.5 58.5v894q0 42 -13 59t-51 27v27h893q42 0 59 13t27 51h27v-238h-27q-10 39 -27 52t-59 13h-686v-378h437q42 0 59 13t27 51h27v-238h-27q-10 39 -27.5 52t-58.5 13h-437v-415h692q42 0 59.5 13t26.5 52h28v-238h-28q-9 38 -26 51t-59 13 h-900z" />
<glyph unicode="f" horiz-adv-x="1208" d="M120 0v27q38 10 51 27.5t13 58.5v894q0 42 -13 59t-51 27v27h910q41 0 58.5 13t27.5 51h27v-238h-27q-10 39 -27.5 52t-58.5 13h-703v-377h457q42 0 59 13t27 52h27v-238h-27q-10 38 -27 51t-59 13h-457v-412q0 -41 13 -58.5t51 -27.5v-27h-271z" />
<glyph unicode="g" horiz-adv-x="1434" d="M93 557q0 188 114 339q102 134 271 197q126 47 270 47q124 0 226.5 -30t245.5 -107q23 -12 33 -12q12 0 47 40l23 -16l-137 -220l-23 14q10 35 10 47q0 26 -95 81q-154 87 -327 87q-212 0 -352 -122q-156 -135 -156 -349q0 -203 143 -332q141 -129 372 -129 q116 0 221 34.5t178 95.5v206h-252q-42 0 -59.5 -13t-26.5 -51h-27v238h27q9 -39 26.5 -52t59.5 -13h442v-27q-39 -9 -52 -26.5t-13 -59.5v-116q0 -42 13 -59.5t52 -26.5v-23q-260 -223 -605 -223q-272 0 -446 146q-93 79 -146 190q-57 118 -57 245z" />
<glyph unicode="h" horiz-adv-x="1393" d="M120 0v27q38 10 51 27.5t13 58.5v894q0 42 -13 59t-51 27v27h271v-27q-38 -10 -51 -27t-13 -59v-376h738v376q0 42 -13 59t-51 27v27h271v-27q-38 -10 -51 -27.5t-13 -58.5v-894q0 -41 13 -58.5t51 -27.5v-27h-271v27q38 10 51 27.5t13 58.5v409h-738v-409 q0 -41 13 -58.5t51 -27.5v-27h-271z" />
<glyph unicode="i" horiz-adv-x="512" d="M120 0v27q38 10 51 27.5t13 58.5v894q0 42 -13 59t-51 27v27h271v-27q-38 -10 -51 -27t-13 -59v-894q0 -41 13 -58.5t51 -27.5v-27h-271z" />
<glyph unicode="j" horiz-adv-x="1005" d="M5 36l112 237l26 -11q-8 -33 -8 -47q0 -16 19 -31q50 -40 135.5 -66t166.5 -26q76 0 133.5 26.5t82.5 73.5q27 49 27 189v626q0 42 -13 59t-51 27v27h271v-27q-38 -10 -51 -27t-13 -59v-654q0 -95 -15.5 -154t-50.5 -102q-47 -56 -128.5 -88.5t-176.5 -32.5 q-81 0 -186 22t-183 56q-16 7 -27 7q-24 0 -45 -36z" />
<glyph unicode="k" horiz-adv-x="1263" d="M120 0v27q38 10 51 27.5t13 58.5v894q0 42 -13 59t-51 27v27h271v-27q-38 -10 -51 -27t-13 -59v-442l536 417q55 43 68 56.5t13 26.5q0 21 -36 28v27h315v-27q-40 -8 -55 -15t-47 -32l-447 -349l495 -629q20 -25 34.5 -32.5t42.5 -8.5v-27h-298v27q44 11 44 27 q0 11 -35 58l-389 503l-241 -182v-320q0 -41 13 -58.5t51 -27.5v-27h-271z" />
<glyph unicode="l" horiz-adv-x="1146" d="M120 0v27q38 10 51 27.5t13 58.5v894q0 42 -13 59t-51 27v27h271v-27q-38 -10 -51 -27t-13 -59v-898h683q42 0 59.5 13t27.5 52h27v-238h-27q-10 38 -27.5 51t-59.5 13h-890z" />
<glyph unicode="m" horiz-adv-x="1583" d="M120 0v27q38 10 51 27.5t13 58.5v894q0 42 -13 59t-51 27v27h340v-27q-50 -15 -50 -44q0 -12 25 -63l354 -716l356 716q24 48 24 63q0 29 -50 44v27h343v-27q-38 -10 -51 -27.5t-13 -58.5v-894q0 -41 13 -58.5t51 -27.5v-27h-271v27q38 10 51 27.5t13 58.5v831l-476 -944 l-476 944v-831q0 -41 13 -58.5t51 -27.5v-27h-247z" />
<glyph unicode="n" horiz-adv-x="1434" d="M120 0v27q39 10 51.5 27.5t12.5 58.5v894q0 42 -13 59t-51 27v27h364v-27q-52 -17 -52 -52q0 -30 38 -72l661 -740v778q0 42 -13 59t-51 27v27h247v-27q-38 -10 -51 -27t-13 -59v-894q0 -41 12.5 -58.5t51.5 -27.5v-27h-293v27q52 13 52 41q0 21 -48 75l-722 802v-832 q0 -41 12.5 -58.5t51.5 -27.5v-27h-247z" />
<glyph unicode="o" horiz-adv-x="1536" d="M93 560q0 177 95 318q101 149 283 217q125 47 295 49q299 0 482 -156q195 -165 195 -436q0 -169 -96 -310q-181 -266 -579 -266q-297 0 -480 156q-195 166 -195 428zM243 560q0 -188 130 -318q149 -150 395 -150t395 150q130 130 130 312q0 197 -130 324 q-150 148 -397 150q-244 0 -393 -150q-130 -130 -130 -318z" />
<glyph unicode="p" horiz-adv-x="1229" d="M120 0v32q36 10 50 26t14 46v919q0 29 -14.5 43.5t-49.5 23.5v30h620q124 0 187.5 -11t114.5 -42q61 -36 96 -104.5t35 -151.5t-34.5 -150t-97.5 -104q-52 -32 -115 -43t-186 -11h-413v-399q0 -30 13.5 -46t47.5 -26v-32h-268zM327 612h394q107 0 158 8.5t87 32.5 q70 46 70 159q0 111 -70 158q-36 24 -86.5 32.5t-158.5 8.5h-394v-399z" />
<glyph unicode="q" horiz-adv-x="1536" d="M93 560q0 262 195 428q183 156 480 156t480 -156q195 -166 195 -428q0 -305 -262 -477l104 -79q23 -17 43 -17q13 0 40 32l22 -15l-150 -197l-21 17q14 34 14 46q0 22 -31 47l-137 108q-140 -49 -300 -49q-294 0 -477 156q-195 166 -195 428zM243 560q0 -188 130 -318 q149 -150 394 -150q84 0 182 25q-71 51 -107 68t-71 17q-33 0 -70 -26l-17 22q80 54 161 54q56 0 103.5 -18t120.5 -66q224 144 224 392q0 188 -130 318q-149 150 -395 150t-395 -150q-130 -130 -130 -318z" />
<glyph unicode="r" horiz-adv-x="1308" d="M120 0v27q39 10 51.5 27.5t12.5 58.5v894q0 42 -13 59t-51 27v27h665q113 0 184.5 -16t124.5 -54q116 -82 116 -240q0 -129 -81 -203.5t-238 -89.5l281 -446q15 -24 29.5 -32.5t51.5 -13.5v-25h-277v27q39 8 39 25q0 12 -23 48l-258 407h-407v-394q0 -41 13 -58.5 t51 -27.5v-27h-271zM327 616h426q103 0 154.5 7.5t87.5 27.5q79 44 79 153q0 105 -74 158q-68 49 -231 49h-442v-395z" />
<glyph unicode="s" horiz-adv-x="1268" d="M66 108l127 213l24 -14l-4 -16q-5 -16 -5 -26q0 -28 102 -82q172 -91 357 -91q169 0 281 58q54 28 86 75.5t32 99.5q0 48 -27 86t-71 54q-41 14 -91.5 20t-190.5 11q-165 7 -236 16.5t-134 32.5q-80 29 -129 94q-49 67 -49 158q0 161 146 253q149 94 379 94 q210 0 422 -94q32 -13 37 -13q16 0 38 37l25 -12l-110 -218l-24 12q5 29 5 40q0 24 -65 58q-138 74 -336 74q-159 0 -270 -59q-111 -60 -111 -167q0 -48 28 -86.5t75 -54.5t102 -21t236 -12q151 -5 228.5 -19t132.5 -45q59 -33 93 -95.5t34 -136.5q0 -155 -127 -247 q-152 -109 -404 -109q-124 0 -260.5 38t-253.5 104q-16 10 -24 10q-15 0 -45 -35z" />
<glyph unicode="t" horiz-adv-x="1132" d="M16 940v238h27q10 -38 27 -51t59 -13h873q42 0 59 13t27 51h27v-238h-27q-10 39 -27.5 52t-58.5 13h-365v-892q0 -41 12.5 -58.5t51.5 -27.5v-27h-271v27q38 10 51 27.5t13 58.5v892h-365q-42 0 -59 -13t-27 -52h-27z" />
<glyph unicode="u" horiz-adv-x="1342" d="M98 1093v27h271v-27q-38 -10 -51 -27.5t-13 -58.5v-575q0 -133 13 -183.5t57 -84.5q90 -72 308 -72q241 0 326 88q31 33 41 81.5t10 170.5v575q0 41 -13 58.5t-51 27.5v27h247v-27q-38 -10 -51 -27t-13 -59v-604q0 -154 -26 -217q-44 -108 -161 -159t-322 -51 q-294 0 -412 109q-57 52 -76.5 117t-19.5 201v604q0 42 -13 59t-51 27z" />
<glyph unicode="v" horiz-adv-x="1231" d="M5 1093v27h310v-27q-59 -10 -59 -54q0 -25 15 -59l361 -821l359 821q15 33 15 57q0 47 -59 56v27h278v-27q-43 -12 -62.5 -36t-58.5 -113l-342 -779q-24 -55 -24 -83q0 -44 56 -55v-27h-346v27q56 12 56 56q0 27 -25 82l-352 779q-41 91 -60 114t-62 35z" />
<glyph unicode="w" horiz-adv-x="1823" d="M-5 1093v27h293v-27q-57 -14 -57 -54q0 -13 15 -55l286 -791l280 791q14 39 14 54q0 40 -54 55v27h302v-27q-58 -15 -58 -53q0 -20 13 -56l286 -801l278 801q10 28 10 49q0 46 -63 60v27h289v-27q-43 -10 -66.5 -33.5t-42.5 -75.5l-300 -844q-14 -38 -14 -58 q0 -50 56 -55v-27h-309v27q53 9 53 53q0 23 -19 76l-275 763l-273 -763q-20 -56 -20 -71q0 -43 58 -58v-27h-312v27q55 9 55 52q0 27 -18 77l-307 828q-20 56 -38.5 76t-61.5 33z" />
<glyph unicode="x" horiz-adv-x="1157" d="M5 0v27q41 10 70.5 33.5t79.5 86.5l348 439l-298 384q-55 73 -78.5 93t-63.5 30v27h320v-27q-46 -12 -46 -44q0 -25 23 -56l225 -297l238 303q24 32 24 51q0 35 -47 43v27h286v-27q-43 -15 -67 -35.5t-76 -88.5l-286 -367l349 -455q54 -71 81 -93t64 -27v-27h-313v27 q49 5 49 32q0 16 -34 62l-283 372l-289 -373q-28 -36 -28 -59q0 -25 45 -34v-27h-293z" />
<glyph unicode="y" horiz-adv-x="1114" d="M-12 1093v27h316v-27q-44 -7 -44 -38q0 -28 27 -63l295 -387l267 386q28 41 28 62q0 34 -45 40v27h292v-27q-45 -15 -83 -51.5t-104 -128.5l-297 -419v-381q0 -41 12.5 -58.5t51.5 -27.5v-27h-271v27q38 10 51 27.5t13 58.5v381l-345 450q-63 83 -93 110t-71 39z" />
<glyph unicode="z" horiz-adv-x="1091" d="M44 0v22l767 989h-643q-42 0 -59 -13t-27 -52h-27v238h27q10 -38 27 -51t59 -13h877v-17l-760 -994h649q42 0 59.5 13t27.5 52h27v-238h-27q-10 38 -27.5 51t-59.5 13h-890z" />
<glyph unicode="{" horiz-adv-x="649" d="M0 554v258h24q8 -37 19 -50.5t34 -13.5h62q39 0 49.5 30t12.5 142v454q0 58 56.5 106.5t124.5 48.5h153q43 0 60 13t27 51h27v-238h-27q-10 39 -27 52t-60 13h-82q-57 -1 -89 -52q-13 -21 -16.5 -59.5t-3.5 -175.5v-307q0 -45 -17 -74.5t-65 -68.5q48 -38 65 -68t17 -75 v-451q-3 -133 109 -144h82q42 0 59.5 13t27.5 52h27v-238h-27q-10 38 -27.5 51t-59.5 13h-153q-61 0 -117 42q-64 49 -64 113v455q-2 112 -12.5 142t-49.5 30h-62q-23 0 -34 -13.5t-19 -50.5h-24z" />
<glyph unicode="|" d="M434 -341v1706h155v-1706h-155z" />
<glyph unicode="}" horiz-adv-x="649" d="M0 10h27q10 -39 27 -52t59 -13h82q112 11 109 144v451q0 46 17 75.5t65 67.5q-49 39 -65.5 68t-16.5 75v307q0 145 -4 183t-22 61q-32 43 -83 43h-82q-42 0 -59.5 -13t-26.5 -52h-27v238h27q10 -38 27 -51t59 -13h154q60 0 116 -42q64 -50 64 -113v-454q2 -112 12.5 -142 t49.5 -30h62q23 0 34.5 13.5t19.5 50.5h24v-258h-24q-8 37 -19.5 50.5t-34.5 13.5h-62q-39 0 -49.5 -30t-12.5 -142v-455q0 -58 -56.5 -106.5t-123.5 -48.5h-154q-42 0 -59 -13t-27 -51h-27v238z" />
<glyph unicode="~" horiz-adv-x="1365" d="M193 599q58 118 124 173t151 55q79 0 235 -79q87 -44 124 -57t76 -13q100 0 187 154l83 -66q-42 -86 -83 -134q-82 -95 -192 -95q-41 0 -88.5 16.5t-147.5 65.5q-137 68 -200 68q-53 0 -95 -34.5t-90 -118.5z" />
<glyph unicode="&#xa1;" horiz-adv-x="699" d="M205 0v27q13 2 18 2q22 3 30.5 12t9.5 32l53 823v15l1 10q0 15 -7.5 20t-46.5 15v27h173v-27l-16 -4q-40 -9 -38 -31l1 -10v-15l53 -823q2 -26 11 -33.5t47 -12.5v-27h-289zM240 1279q0 45 31.5 76.5t77.5 32.5q45 0 77 -32t32 -79q0 -44 -32 -75.5t-77 -31.5t-77 32 t-32 77z" />
<glyph unicode="&#xa2;" horiz-adv-x="1475" d="M132 685q0 223 147 380q157 169 427 197v129q0 30 -14 46t-50 26v32h243v-32q-36 -10 -50 -26t-14 -46v-125q123 -3 223 -30t212 -87q20 -10 30 -10q20 0 46 34l24 -13l-125 -215l-23 15q7 25 7 40q0 21 -40 47q-145 93 -354 103v-934q163 12 288 84q51 30 88 64t37 51 q0 16 -18 51l23 15l156 -200l-20 -18q-37 31 -51 31q-8 0 -24 -13q-212 -169 -479 -181v-125q0 -31 14 -47t50 -25v-33h-243v33q36 9 50 25t14 47v127q-166 15 -287 85q-124 70 -199 189q-88 140 -88 309zM282 691q0 -184 114.5 -310.5t309.5 -159.5v924q-158 -24 -264 -111 q-160 -131 -160 -343z" />
<glyph unicode="&#xa3;" horiz-adv-x="1475" d="M274 587v257h32q10 -35 26 -49t47 -14h63l-3 14q-31 140 -31 194q0 128 82 233q131 167 398 167q110 0 191.5 -29t195.5 -108q47 -31 60 -37t35 -6q13 0 34 4l21 -25l-221 -190l-21 25q19 20 19 41q0 50 -71 110q-92 78 -230 78q-154 0 -250 -76t-96 -197q0 -44 31 -194 v-4h299q31 0 47 14t26 49h32v-257h-32q-10 36 -26 50t-47 14h-270q12 -64 12 -136q0 -111 -34.5 -192.5t-121.5 -174.5q146 39 261 39q97 0 217 -32q87 -23 138 -23q54 0 91 29t37 71q0 26 -24 56l20 27l235 -236l-24 -21q-34 20 -55 20t-62 -24q-70 -39 -112.5 -52.5 t-99.5 -13.5q-55 0 -202 38q-92 24 -197 24q-172 0 -317 -76l-91 177q100 66 146.5 154.5t46.5 211.5q0 51 -14 134h-86q-31 0 -47 -14t-26 -50h-32z" />
<glyph unicode="&#xa4;" horiz-adv-x="1447" d="M23 167l15 16q31 -22 46 -22q16 0 28 14l124 138q-122 158 -122 370q0 220 130 380l-123 137q-13 14 -29 14t-46 -22l-14 16l164 182l15 -16q-20 -36 -20 -51q0 -18 13 -32l129 -143q157 118 389 118q235 0 397 -126l128 141q13 15 13 32q0 18 -20 51l15 17l164 -182 l-15 -17q-30 22 -46 22t-29 -14l-123 -137q123 -158 123 -370q0 -205 -119 -365l124 -137q13 -15 29 -15t45 23l16 -18l-165 -182l-15 17q20 33 20 51t-13 32l-127 141q-163 -131 -402 -131q-238 0 -399 127l-128 -142q-13 -15 -13 -32q0 -18 20 -51l-15 -17zM249 683 q0 -189 117 -318q134 -150 355 -150q222 0 356 150q117 129 117 312q0 197 -117 324q-136 147 -357 149q-219 0 -354 -149q-117 -130 -117 -318z" />
<glyph unicode="&#xa5;" horiz-adv-x="1475" d="M116 1333v32h336v-32q-29 -7 -38 -15t-9 -26q0 -14 6 -26t41 -69l298 -478l296 494q33 51 38.5 61.5t5.5 22.5q0 25 -44 36v32h313v-32q-50 -8 -84 -43q-79 -86 -93 -108l-140 -216h123q36 0 54.5 14t29.5 50h37v-258h-37q-11 36 -29.5 50t-54.5 14h-196l-146 -239h274 q36 0 54 14t30 50h37v-258h-37q-12 37 -30 50.5t-54 13.5h-284v-349q0 -41 15 -58.5t59 -27.5v-32h-285v32q44 10 59 27t15 59v349h-298q-36 0 -54 -13.5t-30 -50.5h-37v258h37q12 -36 30 -50t54 -14h288l-149 239h-207q-36 0 -54 -13.5t-31 -50.5h-37v258h37 q12 -36 30.5 -50t54.5 -14h122l-148 216q-44 51 -90 110q-34 34 -78 41z" />
<glyph unicode="&#xa6;" d="M434 314h155v-655h-155v655zM434 682v683h155v-683h-155z" />
<glyph unicode="&#xa7;" horiz-adv-x="1258" d="M109 -14l154 229l24 -19q-29 -37 -29 -56q0 -32 116 -100q137 -81 287 -81q118 0 190 41.5t72 110.5q0 95 -161 165l-323 138q-279 120 -279 313q0 83 52 161.5t148 139.5q-66 48 -94 94.5t-28 109.5q0 120 103 201q113 89 291 89q101 0 183 -25t192 -89q26 -15 37 -15 q18 0 48 32l26 -19l-153 -221l-28 19q22 30 22 56q0 15 -14.5 29.5t-58.5 41.5q-120 75 -254 75q-109 0 -180 -45t-71 -113q0 -54 46.5 -94.5t170.5 -93.5l246 -105q146 -63 224 -139q80 -78 80 -190q0 -79 -43 -150t-145 -160q106 -83 106 -193q0 -119 -101 -195 q-115 -86 -299 -86q-122 0 -220.5 32t-218.5 111q-23 15 -36 15q-19 0 -56 -31zM310 733q0 -71 62.5 -122t248.5 -131l223 -96q74 50 114 110.5t40 124.5q0 72 -55.5 121.5t-209.5 115.5l-255 109q-168 -99 -168 -232z" />
<glyph unicode="&#xa8;" d="M242 1373q0 39 27 65.5t66 27.5q39 0 66 -27t27 -67q0 -38 -27.5 -65t-65.5 -27t-65.5 27.5t-27.5 65.5zM594 1373q0 39 27 65.5t66 27.5q39 0 66 -27t27 -67q0 -38 -27.5 -65t-65.5 -27q-39 0 -66 27.5t-27 65.5z" />
<glyph unicode="&#xa9;" horiz-adv-x="1865" d="M116 683q0 203 110 374q120 185 340 270q154 59 364 62q361 0 582 -189q124 -105 186 -257q51 -125 51 -269q0 -195 -111 -365q-122 -188 -339 -271q-162 -62 -367 -62q-359 0 -579 189q-123 106 -186 257q-51 124 -51 261zM215 683q0 -263 180 -437q197 -190 537 -190 q342 0 538 190q180 174 180 428q0 277 -180 446q-107 101 -231 143q-136 46 -309 47q-338 0 -535 -190q-180 -173 -180 -437zM456 682q0 147 90 256q138 169 417 169q188 0 355 -92q9 -5 12 -5q5 0 28 23l28 -14l-99 -158l-28 15q7 22 7 32q0 19 -75 55q-108 50 -235 50 q-172 0 -278 -90q-107 -91 -107 -236t112 -241q109 -93 268 -93q156 0 275 87q52 37 52 50q0 8 -13 29l25 19l119 -138l-25 -19q-20 17 -28 17q-6 0 -20 -11q-166 -128 -384 -128q-217 0 -353 115q-143 121 -143 308z" />
<glyph unicode="&#xaa;" horiz-adv-x="1046" d="M192 1342l33 13q11 -11 18 -11q4 0 13 4q37 17 103 29t122 12q150 0 237.5 -57.5t87.5 -156.5v-300q0 -18 9.5 -25.5t38.5 -11.5v-27h-135v63q-50 -44 -97 -61t-118 -17q-123 0 -213 58q-86 55 -86 145q0 88 85.5 145.5t216.5 57.5q69 0 115.5 -15.5t96.5 -55.5v53 q0 63 -64 101.5t-169 38.5q-61 0 -126.5 -14t-66.5 -27l6 -15l-32 -13zM196 537v210h23q8 -37 19.5 -50.5t33.5 -13.5h502q22 0 34 14t19 50h24v-210h-24q-8 37 -19 50.5t-34 13.5h-502q-22 0 -33.5 -13.5t-19.5 -50.5h-23zM290 994q0 -50 64.5 -84.5t157.5 -34.5 q102 0 162 44q45 32 45 75q0 58 -55.5 93.5t-148.5 36.5q-111 0 -175 -44q-50 -34 -50 -86z" />
<glyph unicode="&#xab;" d="M150 560l195 400h138l-196 -400l196 -401h-138zM513 560l195 400h138l-197 -400l197 -401h-138z" />
<glyph unicode="&#xac;" d="M68 431v136h887v-567h-151v431h-736z" />
<glyph unicode="&#xad;" horiz-adv-x="407" d="M0 431v258h23q8 -37 19.5 -50.5t33.5 -13.5h254q22 0 34 14t19 50h24v-258h-24q-8 37 -19 50.5t-34 13.5h-254q-22 0 -33.5 -13.5t-19.5 -50.5h-23z" />
<glyph unicode="&#xae;" horiz-adv-x="1865" d="M116 683q0 203 110 374q120 185 340 270q154 59 364 62q361 0 582 -189q124 -105 186 -257q51 -125 51 -269q0 -195 -111 -365q-122 -188 -339 -271q-162 -62 -367 -62q-359 0 -579 189q-123 106 -186 257q-51 124 -51 261zM215 683q0 -263 180 -437q197 -190 537 -190 q342 0 538 190q180 174 180 428q0 277 -180 446q-107 101 -231 143q-136 46 -309 47q-338 0 -535 -190q-180 -173 -180 -437zM519 273v31q26 6 33 14t7 31v667q0 24 -7.5 32.5t-32.5 12.5v32l471 -1q98 0 153.5 -10t97.5 -35q101 -59 101 -184q0 -92 -64 -153t-170 -70 l208 -308q19 -28 57 -27v-32h-210v32q31 4 31 11q0 2 -21 34l-190 285h-313v-286q0 -23 7.5 -31.5t32.5 -13.5v-31h-191zM670 725h336q119 0 165 26q60 33 60 112q0 80 -62 113q-48 26 -172 26h-327v-277z" />
<glyph unicode="&#xaf;" d="M0 1512v103h1024v-103h-1024z" />
<glyph unicode="&#xb0;" horiz-adv-x="969" d="M178 1080q0 67 28 130t77 104q87 73 203 75q131 0 224 -98q82 -86 82 -213t-93 -217q-89 -87 -213 -87q-137 0 -229 100q-79 88 -79 206zM261 1081q0 -83 54 -149q66 -79 169 -79q87 0 154 63q71 68 71 160q0 96 -62 161q-68 72 -165 73q-84 0 -147 -61q-74 -70 -74 -168 z" />
<glyph unicode="&#xb1;" horiz-adv-x="1570" d="M238 -129v258h34q22 -37 54.5 -50.5t96.5 -13.5h722q65 0 98.5 14t53.5 50h36v-258h-36q-22 37 -54 50.5t-97 13.5h-723q-65 0 -97.5 -13.5t-54.5 -50.5h-33zM238 554v258h34q22 -37 54.5 -50.5t96.5 -13.5h298v295q0 64 -14.5 97t-50.5 54v36h258v-36q-36 -22 -49.5 -54 t-13.5 -97v-295h294q65 0 98.5 14t53.5 50h36v-258h-36q-22 36 -54.5 50t-96.5 14h-295v-243q0 -65 13.5 -97t49.5 -55v-33h-258v34q37 22 51 54.5t14 96.5v243h-299q-64 0 -96 -13.5t-55 -50.5h-33z" />
<glyph unicode="&#xb2;" horiz-adv-x="929" d="M90 1226l23 22q25 -17 37 -17q4 0 13 9q62 66 149 102.5t183 36.5q132 0 218 -66q89 -69 89 -176q0 -90 -58 -150.5t-216 -135.5q-139 -66 -195.5 -109.5t-82.5 -105.5h507q24 0 33 7t14 31h32v-166h-32q-5 24 -14 31t-33 7h-572q-24 0 -32.5 -7t-14.5 -31h-32 q-4 258 385 427q116 53 159 94.5t43 100.5q0 68 -59 111.5t-151 43.5q-115 0 -204 -73q-50 -41 -50 -57q0 -13 19 -34l-23 -22z" />
<glyph unicode="&#xb3;" horiz-adv-x="928" d="M63 626l96 154l28 -15q-9 -20 -9 -26q0 -9 18 -24q103 -89 281 -89q126 0 195 55q55 43 55 111q0 71 -59 109t-169 38h-78q-25 0 -33.5 -7t-13.5 -31h-32v166h32q5 -24 14 -31t33 -7h64q110 0 159 32q47 31 47 85q0 60 -63 99.5t-159 39.5q-127 0 -222 -75 q-42 -33 -42 -48q0 -5 12 -28l-23 -21l-119 132l22 21q23 -17 30 -17q4 0 16 8q101 70 171 96t162 26q144 0 237 -69q87 -64 87 -159q0 -56 -29 -94.5t-93 -67.5q73 -19 116 -72.5t43 -125.5q0 -114 -98 -184q-104 -75 -268 -75q-168 0 -335 91q-13 7 -17 7q-10 0 -29 -20z " />
<glyph unicode="&#xb4;" d="M413 1246v27q22 0 30 6t20 30l76 163q3 6 3 12q0 19 -27 22v27h232v-27q-34 -3 -51 -27l-129 -173q-6 -9 -6 -18q0 -15 21 -15h4v-27h-173z" />
<glyph unicode="&#xb5;" horiz-adv-x="908" d="M-5 -294q0 40 14 123q57 383 57 743v365h143v-587q0 -99 11.5 -148.5t41.5 -84.5q47 -53 130 -53q73 0 132 38.5t120 125.5v709h142v-698q0 -92 16.5 -124t64.5 -32q27 0 62 23v-33l-165 -93q-4 -2 -9 -2q-19 0 -41 14.5t-32 33.5q-15 28 -30 124q-90 -87 -133 -117 q-89 -63 -184 -63q-87 0 -141 44t-83 137q-1 -44 -1 -60q0 -67 3.5 -102.5t23.5 -177.5q10 -67 10 -98q0 -44 -21 -72.5t-54 -28.5t-55 27t-22 67z" />
<glyph unicode="&#xb6;" horiz-adv-x="1307" d="M41 1010q0 114 69 200q48 60 105.5 92.5t138.5 45.5q101 17 123 17h734v-32q-39 -10 -51.5 -27t-12.5 -59v-1293q0 -42 12.5 -59t51.5 -27v-32h-221v1406h-192v-1406h-221v32q39 10 51.5 27t12.5 59v681h-181q-61 0 -136 22t-120 53q-163 113 -163 300z" />
<glyph unicode="&#xb8;" d="M340 -360l16 36q42 -13 79 -13q113 0 113 82q0 68 -62 68q-33 0 -58 -27l-20 12l51 104q22 2 40 2q86 0 136 -37t50 -100q0 -68 -50 -109q-49 -41 -141 -41q-90 0 -154 23z" />
<glyph unicode="&#xb9;" horiz-adv-x="928" d="M302 1140v165h32q2 -13 3 -17l2 -11q1 -8 10 -8q25 0 59 18.5t34 31.5q0 8 -33 14v32h177v-32q-25 -5 -32.5 -13t-7.5 -31v-667q0 -22 7 -30t33 -14v-32h-184v32q25 6 32 14t7 30v579q-50 -26 -82 -30q-15 -2 -17.5 -5t-7.5 -26h-32z" />
<glyph unicode="&#xba;" horiz-adv-x="1046" d="M195 1092q0 126 90 204t237 80q145 0 234 -76q95 -80 95 -212q0 -124 -95 -205q-89 -76 -233 -76t-233 76q-95 81 -95 209zM196 537v210h23q8 -37 19.5 -50.5t33.5 -13.5h502q22 0 34 14t19 50h24v-210h-24q-8 37 -19 50.5t-34 13.5h-502q-22 0 -33.5 -13.5t-19.5 -50.5 h-23zM278 1091q0 -87 60 -148q69 -70 185 -70t185 70q60 61 60 146q0 98 -68 159t-178 62q-114 0 -184 -70q-60 -61 -60 -149z" />
<glyph unicode="&#xbb;" d="M177 159l197 401l-197 400h138l195 -400l-195 -401h-138zM540 159l196 401l-196 400h138l195 -400l-195 -401h-138z" />
<glyph unicode="&#xbc;" horiz-adv-x="2365" d="M302 1140v165h32q4 -27 6 -31.5t9 -4.5q25 0 59 18.5t34 31.5q0 8 -33 14v32h177v-32q-25 -5 -32.5 -13t-7.5 -31v-667q0 -22 7 -30t33 -14v-32h-184v32q25 6 32 14t7 30v579q-50 -26 -82 -30q-15 -2 -17.5 -5t-7.5 -26h-32zM723 0v28q68 5 129 124l509 1061q32 67 32 83 q0 37 -69 42v27h317v-27q-68 -5 -130 -124l-500 -1062q-32 -69 -32 -83q0 -35 65 -41v-28h-321zM1504 131v107l471 529q5 6 5 9t-30 11v32h232v-32q-24 -5 -31.5 -13.5t-7.5 -31.5v-483h75q24 0 32.5 7t14.5 31h32v-166h-32q-5 24 -14 31t-33 7h-75v-93q0 -22 7 -30t32 -14 v-32h-183v32q25 6 32 14t7 30v93h-455q-24 0 -33 -7t-14 -31h-32zM1649 259h389v445z" />
<glyph unicode="&#xbd;" horiz-adv-x="2365" d="M302 1140v165h32q4 -27 6 -31.5t9 -4.5q25 0 59 18.5t34 32.5q0 7 -33 13v32h177v-32q-25 -5 -32.5 -13t-7.5 -31v-666q0 -23 7.5 -31t32.5 -14v-32h-184v32q24 6 31.5 14t7.5 31v578q-50 -26 -82 -30q-15 -2 -17.5 -5t-7.5 -26h-32zM723 0v28q68 5 129 124l509 1061 q32 67 32 83q0 37 -69 42v27h317v-27q-68 -5 -130 -124l-500 -1062q-32 -69 -32 -83q0 -35 65 -41v-28h-321zM1526 680l23 22q26 -17 37 -17q4 0 13 9q62 66 149 102.5t183 36.5q132 0 218 -66q89 -69 89 -176q0 -90 -58 -150.5t-216 -135.5q-139 -66 -195.5 -109.5 t-82.5 -105.5h507q24 0 33 7t14 31h32v-166h-32q-5 24 -14 31t-33 7h-572q-24 0 -32.5 -7t-14.5 -31h-32q-4 257 384 427q117 53 160 94.5t43 100.5q0 68 -59 111.5t-151 43.5q-115 0 -204 -73q-50 -41 -50 -57q0 -13 19 -33l-23 -23z" />
<glyph unicode="&#xbe;" horiz-adv-x="2365" d="M63 626l96 154l28 -15q-9 -20 -9 -26q0 -9 18 -24q103 -89 281 -89q126 0 195 55q55 43 55 111q0 71 -59 109t-169 38h-78q-25 0 -33.5 -7t-13.5 -31h-32v166h32q5 -24 14 -31t33 -7h64q110 0 159 32q47 32 47 85q0 61 -63 100t-159 39q-127 0 -222 -75q-42 -33 -42 -48 q0 -5 12 -27l-23 -22l-119 132l22 21q23 -17 30 -17q5 0 40 25q151 105 309 105q144 0 237 -69q87 -64 87 -159q0 -56 -29 -94.5t-93 -67.5q75 -21 117 -73t42 -125q0 -114 -98 -184q-104 -75 -268 -75q-168 0 -335 91q-13 7 -17 7q-9 0 -29 -20zM723 0v28q68 5 129 124 l509 1061q32 67 32 83q0 37 -69 42v27h317v-27q-68 -5 -130 -124l-500 -1062q-32 -69 -32 -83q0 -35 65 -41v-28h-321zM1504 131v107l470 529q5 6 5 9t-30 11v32h232v-32q-24 -5 -31.5 -13.5t-7.5 -31.5v-483h75q24 0 32.5 7t14.5 31h32v-166h-32q-5 24 -14 31t-33 7h-75 v-93q0 -22 7 -30t32 -14v-32h-183v32q25 6 32 14t7 30v93h-454q-24 0 -33 -7t-14 -31h-32zM1648 259h389v445z" />
<glyph unicode="&#xbf;" horiz-adv-x="1051" d="M150 297q0 97 57 176q29 40 136 148q55 56 89 133t34 145q0 25 -11 34.5t-45 14.5v27h242v-27q-35 -2 -46 -13.5t-13 -49.5q-4 -109 -43 -188q-22 -44 -42.5 -71.5t-126.5 -154.5q-74 -89 -74 -166q0 -73 39 -122q66 -84 183 -84q120 0 215 89q52 49 52 89q0 15 -21 45 l23 22l185 -199l-23 -22l-25 15q-13 8 -20 8q-10 0 -34 -20q-178 -150 -373 -150q-163 0 -267 101q-91 89 -91 220zM417 1282q0 44 31.5 75t76.5 32q44 0 75.5 -32t31.5 -76t-31.5 -75.5t-75.5 -31.5q-46 0 -77 31.5t-31 76.5z" />
<glyph unicode="&#xc0;" horiz-adv-x="1510" d="M6 0v32q41 7 62.5 30t56.5 100l500 1079q18 39 18 53q0 26 -49 39v32h332v-32q-49 -16 -49 -42q0 -11 18 -50l479 -1040q53 -115 70 -135t74 -34v-32h-324v32q58 8 58 44q0 16 -22 62l-111 245h-731l-120 -259q-17 -37 -17 -52q0 -30 59 -40v-32h-304zM447 513h613 l-307 674zM520 1738v27h232v-27q-27 -3 -27 -22q0 -6 3 -12l77 -163q11 -24 19 -30t30 -6v-27h-173v27h5q20 0 20 15q0 9 -6 18l-129 172q-17 25 -51 28z" />
<glyph unicode="&#xc1;" horiz-adv-x="1510" d="M6 0v32q41 7 62.5 30t56.5 100l500 1079q18 39 18 53q0 26 -49 39v32h332v-32q-49 -16 -49 -42q0 -11 18 -50l479 -1040q53 -115 70 -135t74 -34v-32h-324v32q58 8 58 44q0 16 -22 62l-111 245h-731l-120 -259q-17 -37 -17 -52q0 -30 59 -40v-32h-304zM447 513h613 l-307 674zM656 1478v27q22 0 30 6t20 30l76 163q3 6 3 12q0 19 -27 22v27h232v-27q-34 -3 -51 -28l-129 -172q-6 -9 -6 -18q0 -15 21 -15h4v-27h-173z" />
<glyph unicode="&#xc2;" horiz-adv-x="1510" d="M6 0v32q41 7 62.5 30t56.5 100l500 1079q18 39 18 53q0 26 -49 39v32h332v-32q-49 -16 -49 -42q0 -11 18 -50l479 -1040q53 -115 70 -135t74 -34v-32h-324v32q58 8 58 44q0 16 -22 62l-111 245h-731l-120 -259q-17 -37 -17 -52q0 -30 59 -40v-32h-304zM432 1478v27 q26 1 37 7.5t36 34.5l146 149q12 12 12 25q0 17 -35 17v27h262v-27q-33 -4 -33 -18q0 -11 18 -28l169 -167q18 -19 48 -20v-27h-235v27q33 3 33 15q0 6 -17 23l-124 131l-128 -134q-10 -10 -10 -18q0 -15 31 -17v-27h-210zM447 513h613l-307 674z" />
<glyph unicode="&#xc3;" horiz-adv-x="1510" d="M6 0v32q41 7 62.5 30t56.5 100l500 1079q18 39 18 53q0 26 -49 39v32h332v-32q-49 -16 -49 -42q0 -11 18 -50l479 -1040q53 -115 70 -135t74 -34v-32h-324v32q58 8 58 44q0 16 -22 62l-111 245h-731l-120 -259q-17 -37 -17 -52q0 -30 59 -40v-32h-304zM436 1587l13 18 q14 -4 21 -4q18 0 35 23q58 84 148 84q28 0 58 -11l145 -55q24 -9 47 -9q20 0 37.5 16t17.5 35q0 14 -16 30l16 19l130 -84l-14 -23q-14 6 -22 6q-12 0 -25 -18q-64 -95 -138 -95q-36 0 -78 15l-144 53q-18 7 -40 7q-20 0 -38 -16t-19 -35q-1 -10 13 -28l-15 -18zM447 513 h613l-307 674z" />
<glyph unicode="&#xc4;" horiz-adv-x="1510" d="M6 0v32q41 7 62.5 30t56.5 100l500 1079q18 39 18 53q0 26 -49 39v32h332v-32q-49 -16 -49 -42q0 -11 18 -50l479 -1040q53 -115 70 -135t74 -34v-32h-324v32q58 8 58 44q0 16 -22 62l-111 245h-731l-120 -259q-17 -37 -17 -52q0 -30 59 -40v-32h-304zM447 513h613 l-307 674zM510 1605q0 39 27 65.5t66 27.5q39 0 66 -27t27 -67q0 -38 -27.5 -65t-65.5 -27t-65.5 27.5t-27.5 65.5zM827 1605q0 39 27 65.5t66 27.5q39 0 66 -27t27 -67q0 -38 -27.5 -65t-65.5 -27t-65.5 27.5t-27.5 65.5z" />
<glyph unicode="&#xc5;" horiz-adv-x="1510" d="M6 0v32q41 7 62.5 30t56.5 100l500 1079q18 39 18 53q0 26 -49 39v32h332v-32q-49 -16 -49 -42q0 -11 18 -50l479 -1040q53 -115 70 -135t74 -34v-32h-324v32q58 8 58 44q0 16 -22 62l-111 245h-731l-120 -259q-17 -37 -17 -52q0 -30 59 -40v-32h-304zM447 513h613 l-307 674zM566 1619q0 70 56 118t139 49q83 0 140 -49q57 -50 57 -120q0 -68 -58 -117.5t-138 -49.5q-81 0 -138 50q-58 49 -58 119zM661 1618q0 -36 29.5 -61.5t71.5 -25.5q41 0 71 25.5t30 60.5q0 38 -28.5 63t-72.5 25q-43 0 -72 -24.5t-29 -62.5z" />
<glyph unicode="&#xc6;" horiz-adv-x="2026" d="M-20 0v32q80 16 143 130l579 1078q26 48 26 59q0 25 -43 34v32h1128q42 0 59.5 13t26.5 52h32v-258h-32q-9 38 -26.5 50.5t-59.5 12.5h-752v-468h455q42 0 59 13t27 51h32v-258h-32q-10 38 -27 51t-59 13h-455v-507h765q42 0 59.5 13t26.5 51h33v-258h-32 q-10 38 -27.5 51t-59.5 13h-986v32q38 10 51 27t13 59v271h-496l-142 -265q-28 -52 -28 -61q0 -24 46 -31v-32h-304zM475 519h429v714h-51z" />
<glyph unicode="&#xc7;" horiz-adv-x="1735" d="M116 681q0 246 142 426q222 282 665 282q293 0 567 -155q18 -10 25 -10q13 0 47 38l27 -15l-148 -247l-27 16q9 30 9 47q0 41 -128 103q-176 86 -384 86q-280 0 -454 -155q-177 -158 -177 -409q0 -250 184 -415q178 -161 439 -161q255 0 450 149q88 67 88 95q0 14 -17 46 l24 19l178 -216l-25 -20q-28 25 -46 25q-11 0 -38 -21q-92 -69 -152.5 -103.5t-132.5 -58.5q-149 -51 -328 -51q-345 0 -561 192q-227 201 -227 513zM646 -394l20 41q52 -17 99 -17q66 0 103 26t37 72q0 35 -21.5 56t-57.5 21q-22 0 -31 -5t-39 -36l-25 16l64 114q28 3 42 3 q69 0 137 -30q81 -35 81 -126q0 -70 -56 -114q-66 -50 -168 -50q-108 0 -185 29z" />
<glyph unicode="&#xc8;" horiz-adv-x="1474" d="M150 0v32q39 10 51.5 27t12.5 59v1129q0 42 -13 59t-51 27v32h1083q42 0 59 13t27 52h32v-258h-32q-9 37 -26.5 50t-59.5 13h-862v-468h565q42 0 59.5 13t26.5 51h32v-258h-32q-9 38 -26.5 51t-59.5 13h-565v-507h875q42 0 59.5 13t26.5 51h32v-258h-31q-10 38 -27.5 51 t-59.5 13h-1096zM542 1738v27h232v-27q-27 -3 -27 -22q0 -6 3 -12l77 -163q11 -24 19 -30t30 -6v-27h-173v27h5q20 0 20 15q0 9 -6 18l-129 172q-17 25 -51 28z" />
<glyph unicode="&#xc9;" horiz-adv-x="1474" d="M150 0v32q39 10 51.5 27t12.5 59v1129q0 42 -13 59t-51 27v32h1083q42 0 59 13t27 52h32v-258h-32q-9 37 -26.5 50t-59.5 13h-862v-468h565q42 0 59.5 13t26.5 51h32v-258h-32q-9 38 -26.5 51t-59.5 13h-565v-507h875q42 0 59.5 13t26.5 51h32v-258h-31q-10 38 -27.5 51 t-59.5 13h-1096zM665 1478v27q22 0 30 6t20 30l76 163q3 6 3 12q0 19 -27 22v27h232v-27q-34 -3 -51 -28l-129 -172q-6 -9 -6 -18q0 -15 21 -15h4v-27h-173z" />
<glyph unicode="&#xca;" horiz-adv-x="1474" d="M150 0v32q39 10 51.5 27t12.5 59v1129q0 42 -13 59t-51 27v32h1083q42 0 59 13t27 52h32v-258h-32q-9 37 -26.5 50t-59.5 13h-862v-468h565q42 0 59.5 13t26.5 51h32v-258h-32q-9 38 -26.5 51t-59.5 13h-565v-507h875q42 0 59.5 13t26.5 51h32v-258h-31q-10 38 -27.5 51 t-59.5 13h-1096zM441 1478v27q26 1 37 7.5t36 34.5l146 149q12 12 12 25q0 17 -35 17v27h262v-27q-33 -4 -33 -18q0 -11 18 -28l169 -167q18 -19 48 -20v-27h-235v27q33 3 33 15q0 6 -17 23l-124 131l-128 -134q-10 -10 -10 -18q0 -15 31 -17v-27h-210z" />
<glyph unicode="&#xcb;" horiz-adv-x="1474" d="M150 0v32q39 10 51.5 27t12.5 59v1129q0 42 -13 59t-51 27v32h1083q42 0 59 13t27 52h32v-258h-32q-9 37 -26.5 50t-59.5 13h-862v-468h565q42 0 59.5 13t26.5 51h32v-258h-32q-9 38 -26.5 51t-59.5 13h-565v-507h875q42 0 59.5 13t26.5 51h32v-258h-31q-10 38 -27.5 51 t-59.5 13h-1096zM501 1605q0 39 26.5 65.5t66.5 27.5q39 0 66 -27t27 -67q0 -38 -27.5 -65t-65.5 -27q-39 0 -66 27t-27 66zM853 1605q0 39 27 65.5t66 27.5q39 0 66 -27t27 -67q0 -38 -27.5 -65t-65.5 -27q-39 0 -66 27t-27 66z" />
<glyph unicode="&#xcc;" horiz-adv-x="586" d="M51 1738v27h232v-27q-27 -3 -27 -22q0 -6 3 -12l77 -163q11 -24 19 -30t30 -6v-27h-173v27h5q20 0 20 15q0 9 -6 18l-129 172q-17 25 -51 28zM151 0v32q39 10 51.5 27t12.5 59v1129q0 42 -13 59.5t-51 26.5v32h285v-32q-38 -10 -51 -27t-13 -59v-1129q0 -42 12.5 -59 t51.5 -27v-32h-285z" />
<glyph unicode="&#xcd;" horiz-adv-x="586" d="M150 0v32q39 10 51.5 27t12.5 59v1129q0 42 -13 59.5t-51 26.5v32h285v-32q-38 -10 -51 -27t-13 -59v-1129q0 -42 12.5 -59t51.5 -27v-32h-285zM201 1478v27q22 0 30 6t20 30l76 163q3 6 3 12q0 19 -27 22v27h232v-27q-34 -3 -51 -28l-129 -172q-6 -9 -6 -18 q0 -15 21 -15h4v-27h-173z" />
<glyph unicode="&#xce;" horiz-adv-x="586" d="M4 1478v27q40 1 73 42l105 149q12 17 12 25q0 17 -35 17v27h262v-27q-32 -3 -32 -18q0 -10 14 -28l124 -167q32 -20 55 -20v-27h-228v27q33 3 33 15q0 6 -7 13q-8 8 -10 11l-90 137l-94 -140q-10 -15 -10 -18q0 -16 31 -18v-27h-203zM151 0v32q39 10 51.5 27t12.5 59 v1129q0 42 -13 59t-51 27v32h285v-32q-38 -9 -51 -26.5t-13 -59.5v-1129q0 -42 12.5 -59t51.5 -27v-32h-285z" />
<glyph unicode="&#xcf;" horiz-adv-x="586" d="M64 1605q0 39 27 65.5t66 27.5q39 0 66 -27t27 -67q0 -38 -27.5 -65t-65.5 -27t-65.5 27t-27.5 66zM150 0v32q39 10 51.5 27t12.5 59v1129q0 42 -13 59.5t-51 26.5v32h285v-32q-38 -10 -51 -27t-13 -59v-1129q0 -42 12.5 -59t51.5 -27v-32h-285zM334 1605q0 39 26.5 65.5 t66.5 27.5q39 0 66 -27t27 -67q0 -38 -27.5 -65t-65.5 -27q-39 0 -66 27t-27 66z" />
<glyph unicode="&#xd0;" horiz-adv-x="1686" d="M37 577v251h37q12 -37 30 -51t54 -14h57v498q0 30 -14 46t-50 26v32h720q245 0 375 -68q164 -85 250 -261q75 -156 75 -354q0 -232 -101 -401q-91 -150 -230.5 -215.5t-368.5 -65.5h-720v32q36 10 50 26t14 46v536h-57q-36 0 -54 -13.5t-30 -49.5h-37zM372 130h493 q218 0 322 67q124 80 182 246q38 109 38 239q0 240 -121 395q-67 86 -163 122t-258 36h-493v-472h357q36 0 54 14t30 51h37v-251h-37q-12 36 -30 49.5t-54 13.5h-357v-510z" />
<glyph unicode="&#xd1;" horiz-adv-x="1722" d="M150 0v32q39 10 51.5 27t12.5 59v1129q0 42 -13 59.5t-51 26.5v32h392v-32q-47 -16 -47 -45q0 -20 47 -75l822 -962v996q0 42 -13 59.5t-51 26.5v32h271v-32q-38 -9 -51 -26.5t-13 -59.5v-1129q0 -42 13 -59t51 -27v-32h-315v32q46 12 46 41q0 22 -42 72l-903 1047v-1074 q0 -41 13 -58.5t51 -27.5v-32h-271zM555 1587l13 18q14 -4 21 -4q18 0 35 23q58 84 148 84q28 0 58 -11l145 -55q24 -9 47 -9q20 0 37.5 16t17.5 35q0 14 -16 30l16 19l130 -84l-14 -23q-14 6 -22 6q-12 0 -25 -18q-64 -95 -138 -95q-36 0 -78 15l-144 53q-18 7 -40 7 q-20 0 -38 -16t-19 -35q-1 -10 13 -28l-15 -18z" />
<glyph unicode="&#xd2;" horiz-adv-x="1865" d="M116 683q0 203 110 374q120 185 340 270q154 59 364 62q361 0 582 -189q124 -105 186 -257q51 -125 51 -269q0 -195 -111 -365q-122 -188 -339 -271q-162 -62 -367 -62q-359 0 -579 189q-123 106 -186 257q-51 124 -51 261zM280 683q0 -240 164 -398q178 -172 488 -172 q311 0 490 172q163 158 163 390q0 251 -163 405q-98 92 -210 129q-124 42 -282 43q-307 0 -486 -172q-164 -158 -164 -397zM704 1738v27h232v-27q-27 -3 -27 -22q0 -6 3 -12l77 -163q11 -24 19 -30t30 -6v-27h-173v27h5q20 0 20 15q0 9 -6 18l-129 172q-17 25 -51 28z" />
<glyph unicode="&#xd3;" horiz-adv-x="1865" d="M116 683q0 203 110 374q120 185 340 270q154 59 364 62q361 0 582 -189q124 -105 186 -257q51 -125 51 -269q0 -195 -111 -365q-122 -188 -339 -271q-162 -62 -367 -62q-359 0 -579 189q-123 106 -186 257q-51 124 -51 261zM280 683q0 -240 164 -398q178 -172 488 -172 q311 0 490 172q163 158 163 390q0 251 -163 405q-98 92 -210 129q-124 42 -282 43q-307 0 -486 -172q-164 -158 -164 -397zM834 1478v27q22 0 30 6t20 30l76 163q3 6 3 12q0 19 -27 22v27h232v-27q-34 -3 -51 -28l-129 -172q-6 -9 -6 -18q0 -15 21 -15h4v-27h-173z" />
<glyph unicode="&#xd4;" horiz-adv-x="1865" d="M116 683q0 203 110 374q120 185 340 270q154 59 364 62q361 0 582 -189q124 -105 186 -257q51 -125 51 -269q0 -195 -111 -365q-122 -188 -339 -271q-162 -62 -367 -62q-359 0 -579 189q-123 106 -186 257q-51 124 -51 261zM280 683q0 -240 164 -398q178 -172 488 -172 q311 0 490 172q163 158 163 390q0 251 -163 405q-98 92 -210 129q-124 42 -282 43q-307 0 -486 -172q-164 -158 -164 -397zM609 1478v27q26 1 37 7.5t36 34.5l146 149q12 12 12 25q0 17 -35 17v27h262v-27q-33 -4 -33 -18q0 -11 18 -28l169 -167q18 -19 48 -20v-27h-235v27 q33 3 33 15q0 6 -17 23l-124 131l-128 -134q-10 -10 -10 -18q0 -15 31 -17v-27h-210z" />
<glyph unicode="&#xd5;" horiz-adv-x="1865" d="M116 683q0 203 110 374q120 185 340 270q154 59 364 62q361 0 582 -189q124 -105 186 -257q51 -125 51 -269q0 -195 -111 -365q-122 -188 -339 -271q-162 -62 -367 -62q-359 0 -579 189q-123 106 -186 257q-51 124 -51 261zM280 683q0 -240 164 -398q178 -172 488 -172 q311 0 490 172q163 158 163 390q0 251 -163 405q-98 92 -210 129q-124 42 -282 43q-307 0 -486 -172q-164 -158 -164 -397zM620 1587l13 18q14 -4 21 -4q18 0 35 23q58 84 148 84q28 0 58 -11l145 -55q24 -9 47 -9q20 0 37.5 16t17.5 35q0 14 -16 30l16 19l130 -84l-14 -23 q-14 6 -22 6q-12 0 -25 -18q-64 -95 -138 -95q-36 0 -78 15l-144 53q-18 7 -40 7q-20 0 -38 -16t-19 -35q-1 -10 13 -28l-15 -18z" />
<glyph unicode="&#xd6;" horiz-adv-x="1865" d="M116 683q0 203 110 374q120 185 340 270q154 59 364 62q361 0 582 -189q124 -105 186 -257q51 -125 51 -269q0 -195 -111 -365q-122 -188 -339 -271q-162 -62 -367 -62q-359 0 -579 189q-123 106 -186 257q-51 124 -51 261zM280 683q0 -240 164 -398q178 -172 488 -172 q311 0 490 172q163 158 163 390q0 251 -163 405q-98 92 -210 129q-124 42 -282 43q-307 0 -486 -172q-164 -158 -164 -397zM670 1605q0 39 27 65.5t66 27.5q39 0 66 -27t27 -67q0 -38 -27.5 -65t-65.5 -27t-65.5 27t-27.5 66zM1022 1605q0 39 27 65.5t66 27.5q39 0 66 -27 t27 -67q0 -38 -27.5 -65t-65.5 -27q-39 0 -66 27t-27 66z" />
<glyph unicode="&#xd7;" horiz-adv-x="1570" d="M268 348l26 27q21 -5 32 -5q55 0 132 77l235 236l-234 234q-76 76 -133 76q-11 0 -30 -4l-28 28l183 183l27 -28q-4 -20 -4 -32q0 -55 77 -131l234 -235l234 234q77 77 77 134q0 11 -5 29l29 29l182 -183l-28 -28q-20 4 -32 4q-55 0 -131 -76l-234 -234l236 -237 q76 -76 131 -76q12 0 32 4l26 -26l-183 -182l-26 26q4 21 4 32q0 55 -76 131l-236 236l-236 -236q-76 -76 -76 -131q0 -10 4 -32l-26 -26z" />
<glyph unicode="&#xd8;" horiz-adv-x="1865" d="M116 683q0 203 111 373q217 333 710 333q225 0 407 -81l40 52q22 28 22 65q0 31 -48 46v32h306v-32q-37 -8 -49 -18t-74 -88l-34 -49l-52 -72q294 -218 294 -561q0 -204 -111 -374q-217 -333 -708 -333q-118 0 -203.5 17t-201.5 62l-17 -23q-52 -70 -52 -97q0 -31 46 -40 v-33h-302l1 32q70 10 168 151l52 68q-128 93 -195 196q-110 171 -110 374zM280 683q0 -145 54 -251.5t177 -202.5l744 964q-150 59 -324 59q-309 0 -488 -172q-163 -158 -163 -397zM615 170q147 -57 319 -57q309 0 488 173q163 157 163 397q0 141 -52 246.5t-168 198.5z" />
<glyph unicode="&#xd9;" horiz-adv-x="1617" d="M123 1333v32h285v-32q-38 -10 -51 -27.5t-13 -58.5v-755q0 -134 14 -188.5t58 -94.5q107 -96 399 -96q318 0 417 113q33 38 44 90.5t11 175.5v755q0 41 -13 58.5t-51 27.5v32h271v-32q-38 -9 -51 -26.5t-13 -59.5v-786q0 -145 -28 -221q-52 -136 -195.5 -200t-397.5 -64 q-380 0 -520 147q-57 59 -79.5 134.5t-22.5 203.5v786q0 42 -13 59.5t-51 26.5zM587 1738v27h232v-27q-27 -3 -27 -22q0 -6 3 -12l77 -163q11 -24 19 -30t30 -6v-27h-173v27h5q20 0 20 15q0 9 -6 18l-129 172q-17 25 -51 28z" />
<glyph unicode="&#xda;" horiz-adv-x="1617" d="M123 1333v32h285v-32q-38 -10 -51 -27.5t-13 -58.5v-755q0 -134 14 -188.5t58 -94.5q107 -96 399 -96q318 0 417 113q33 38 44 90.5t11 175.5v755q0 41 -13 58.5t-51 27.5v32h271v-32q-38 -9 -51 -26.5t-13 -59.5v-786q0 -145 -28 -221q-52 -136 -195.5 -200t-397.5 -64 q-380 0 -520 147q-57 59 -79.5 134.5t-22.5 203.5v786q0 42 -13 59.5t-51 26.5zM696 1478v27q22 0 30 6t20 30l76 163q3 6 3 12q0 19 -27 22v27h232v-27q-34 -3 -51 -28l-129 -172q-6 -9 -6 -18q0 -15 21 -15h4v-27h-173z" />
<glyph unicode="&#xdb;" horiz-adv-x="1617" d="M123 1333v32h285v-32q-38 -10 -51 -27.5t-13 -58.5v-755q0 -134 14 -188.5t58 -94.5q107 -96 399 -96q318 0 417 113q33 38 44 90.5t11 175.5v755q0 41 -13 58.5t-51 27.5v32h271v-32q-38 -9 -51 -26.5t-13 -59.5v-786q0 -145 -28 -221q-52 -136 -195.5 -200t-397.5 -64 q-380 0 -520 147q-57 59 -79.5 134.5t-22.5 203.5v786q0 42 -13 59.5t-51 26.5zM479 1478v27q26 1 37 7.5t36 34.5l146 149q12 12 12 25q0 17 -35 17v27h262v-27q-33 -4 -33 -18q0 -11 18 -28l169 -167q18 -19 48 -20v-27h-235v27q33 3 33 15q0 6 -17 23l-124 131l-128 -134 q-10 -10 -10 -18q0 -15 31 -17v-27h-210z" />
<glyph unicode="&#xdc;" horiz-adv-x="1617" d="M123 1333v32h285v-32q-38 -10 -51 -27.5t-13 -58.5v-755q0 -134 14 -188.5t58 -94.5q107 -96 399 -96q318 0 417 113q33 38 44 90.5t11 175.5v755q0 41 -13 58.5t-51 27.5v32h271v-32q-38 -9 -51 -26.5t-13 -59.5v-786q0 -145 -28 -221q-52 -136 -195.5 -200t-397.5 -64 q-380 0 -520 147q-57 59 -79.5 134.5t-22.5 203.5v786q0 42 -13 59.5t-51 26.5zM529 1605q0 39 26.5 65.5t66.5 27.5q39 0 66 -27t27 -67q0 -38 -27.5 -65t-65.5 -27q-39 0 -66 27t-27 66zM901 1605q0 39 27 65.5t66 27.5q39 0 66 -27.5t27 -66.5q0 -38 -27.5 -65t-65.5 -27 q-39 0 -66 27t-27 66z" />
<glyph unicode="&#xdd;" horiz-adv-x="1333" d="M-15 1333v32h346v-32q-47 -12 -47 -39q0 -33 47 -97l347 -472l346 488q44 62 44 84q0 25 -44 36v32h322v-32q-49 -9 -84 -44q-72 -76 -93 -107l-418 -578v-486q0 -41 13 -58.5t51 -27.5v-32h-285v32q38 10 51 27t13 59v486l-441 578q-72 94 -99.5 119t-68.5 32zM567 1478 v27q22 0 30 6t20 30l76 163q3 6 3 12q0 19 -27 22v27h232v-27q-34 -3 -51 -28l-129 -172q-6 -9 -6 -18q0 -15 21 -15h4v-27h-173z" />
<glyph unicode="&#xde;" horiz-adv-x="1398" d="M150 0v32q39 10 51.5 27t12.5 59v1129q0 42 -13 59.5t-51 26.5v32h285v-32q-38 -10 -51 -27t-13 -59v-127h428q152 0 235.5 -16t149.5 -57q69 -43 111 -116q47 -82 47 -185q0 -140 -86 -240q-66 -77 -167.5 -107.5t-289.5 -30.5h-428v-250q0 -42 12.5 -59t51.5 -27v-32 h-285zM371 498h444q114 0 169.5 9t99.5 35q101 60 101 202t-101 202q-44 26 -99.5 35t-169.5 9h-444v-492z" />
<glyph unicode="&#xdf;" horiz-adv-x="2535" d="M66 108l127 213l24 -14l-4 -16q-5 -16 -5 -26q0 -28 102 -82q172 -91 357 -91q169 0 281 58q54 28 86 75.5t32 99.5q0 48 -27 86t-71 54q-41 14 -91.5 20t-190.5 11q-165 7 -236 16.5t-134 32.5q-80 29 -129 94q-49 67 -49 158q0 161 146 253q149 94 379 94 q210 0 422 -94q32 -13 37 -13q16 0 38 37l25 -12l-110 -218l-24 12q5 29 5 40q0 24 -65 58q-138 74 -336 74q-159 0 -270 -59q-111 -60 -111 -167q0 -48 28 -86.5t75 -54.5t102 -21t236 -12q151 -5 228.5 -19t132.5 -45q59 -33 93 -95.5t34 -136.5q0 -155 -127 -247 q-152 -109 -404 -109q-124 0 -260.5 38t-253.5 104q-16 10 -24 10q-15 0 -45 -35zM1334 108l127 213l24 -14q-4 -12 -5 -16q-5 -16 -5 -26q0 -28 102 -82q172 -91 357 -91q169 0 281 58q54 28 86 75.5t32 99.5q0 48 -27 86t-70 54q-42 14 -92 20t-191 11q-165 7 -235.5 16.5 t-134.5 32.5q-79 29 -128 94q-49 67 -49 158q0 161 146 253q148 94 379 94q210 0 422 -94q31 -13 37 -13q15 0 38 37l24 -12l-109 -218l-25 12q5 30 5 40q0 14 -13 26t-52 32q-138 74 -336 74q-158 0 -269 -59t-111 -167q0 -48 28 -86.5t75 -54.5t101.5 -21t236.5 -12 q150 -5 227.5 -19t132.5 -45q59 -33 93 -95.5t34 -136.5q0 -155 -127 -247q-151 -109 -403 -109q-125 0 -261.5 38t-252.5 104q-17 10 -24 10q-15 0 -46 -35z" />
<glyph unicode="&#xe0;" horiz-adv-x="1267" d="M5 0v27q40 7 62.5 31.5t53.5 93.5l371 806q31 67 31 92q0 35 -50 43v27h325v-27q-50 -11 -50 -43q0 -19 40 -107l356 -775q36 -77 62 -106t66 -35v-27h-292v27q47 10 47 34q0 12 -24 66l-86 188h-587l-85 -188q-16 -35 -16 -52q0 -34 52 -48v-27h-276zM378 424h492 l-245 548zM391 1506v27h232v-27q-27 -3 -27 -22q0 -6 3 -12l77 -163q11 -24 19 -30t30 -6v-27h-173v27h5q20 0 20 15q0 9 -6 18l-129 173q-17 24 -51 27z" />
<glyph unicode="&#xe1;" horiz-adv-x="1267" d="M5 0v27q40 7 62.5 31.5t53.5 93.5l371 806q31 67 31 92q0 35 -50 43v27h325v-27q-50 -11 -50 -43q0 -19 40 -107l356 -775q36 -77 62 -106t66 -35v-27h-292v27q47 10 47 34q0 12 -24 66l-86 188h-587l-85 -188q-16 -35 -16 -52q0 -34 52 -48v-27h-276zM378 424h492 l-245 548zM541 1246v27q22 0 30 6t20 30l76 163q3 6 3 12q0 19 -27 22v27h232v-27q-34 -3 -51 -27l-129 -173q-6 -9 -6 -18q0 -15 21 -15h4v-27h-173z" />
<glyph unicode="&#xe2;" horiz-adv-x="1267" d="M5 0v27q40 7 62.5 31.5t53.5 93.5l371 806q31 67 31 92q0 35 -50 43v27h325v-27q-50 -11 -50 -43q0 -19 40 -107l356 -775q36 -77 62 -106t66 -35v-27h-292v27q47 10 47 34q0 12 -24 66l-86 188h-587l-85 -188q-16 -35 -16 -52q0 -34 52 -48v-27h-276zM309 1246v27 q26 1 37 7.5t36 34.5l146 149q12 12 12 25q0 17 -35 17v27h262v-27q-33 -4 -33 -18q0 -11 18 -28l169 -167q18 -19 48 -20v-27h-235v27q33 3 33 15q0 6 -17 23l-124 131l-128 -134q-10 -10 -10 -17q0 -16 31 -18v-27h-210zM378 424h492l-245 548z" />
<glyph unicode="&#xe3;" horiz-adv-x="1267" d="M5 0v27q40 7 62.5 31.5t53.5 93.5l371 806q31 67 31 92q0 35 -50 43v27h325v-27q-50 -11 -50 -43q0 -19 40 -107l356 -775q36 -77 62 -106t66 -35v-27h-292v27q47 10 47 34q0 12 -24 66l-86 188h-587l-85 -188q-16 -35 -16 -52q0 -34 52 -48v-27h-276zM312 1355l13 18 q13 -4 21 -4q18 0 35 23q57 84 148 84q27 0 58 -12l145 -54q25 -10 47 -10q20 0 37.5 16t17.5 35q0 14 -16 31l16 19l130 -84l-14 -23q-14 6 -22 6q-12 0 -25 -18q-64 -96 -138 -96q-35 0 -78 16l-144 53q-19 7 -40 7q-20 0 -38.5 -16.5t-18.5 -34.5q0 -11 13 -28l-15 -18z M378 424h492l-245 548z" />
<glyph unicode="&#xe4;" horiz-adv-x="1267" d="M5 0v27q40 7 62.5 31.5t53.5 93.5l371 806q31 67 31 92q0 35 -50 43v27h325v-27q-50 -11 -50 -43q0 -19 40 -107l356 -775q36 -77 62 -106t66 -35v-27h-292v27q47 10 47 34q0 12 -24 66l-86 188h-587l-85 -188q-16 -35 -16 -52q0 -34 52 -48v-27h-276zM378 424h492 l-245 548zM386 1373q0 39 26.5 65.5t66.5 27.5q39 0 66 -27t27 -67q0 -38 -27.5 -65t-65.5 -27q-39 0 -66 27t-27 66zM704 1373q0 39 26.5 65.5t66.5 27.5q39 0 66 -27t27 -67q0 -38 -27.5 -65t-65.5 -27q-39 0 -66 27t-27 66z" />
<glyph unicode="&#xe5;" horiz-adv-x="1267" d="M5 0v27q40 7 62.5 31.5t53.5 93.5l371 806q31 67 31 92q0 35 -50 43v27h325v-27q-50 -11 -50 -43q0 -19 40 -107l356 -775q36 -77 62 -106t66 -35v-27h-292v27q47 10 47 34q0 12 -24 66l-86 188h-587l-85 -188q-16 -35 -16 -52q0 -34 52 -48v-27h-276zM378 424h492 l-245 548zM436 1387q0 70 56 118t139 49q83 0 140 -49q57 -50 57 -120q0 -68 -58 -117.5t-138 -49.5q-81 0 -138 50q-58 49 -58 119zM531 1386q0 -36 29.5 -61.5t71.5 -25.5q41 0 71 25.5t30 60.5q0 38 -28.5 63t-72.5 25q-43 0 -72 -24.5t-29 -62.5z" />
<glyph unicode="&#xe6;" horiz-adv-x="1771" d="M56 0v27q50 13 80 41t67 96l436 792q45 81 45 101q0 27 -39 36v27h949q42 0 59 13t27 51h27v-238h-27q-9 39 -26.5 52t-59.5 13h-611v-378h361q42 0 59.5 13t27.5 51h27v-238h-27q-10 39 -27.5 52t-59.5 13h-361v-415h617q42 0 60 13.5t26 51.5h28v-238h-28 q-8 38 -25.5 51t-59.5 13h-825v27q38 10 51 27.5t13 58.5v207h-416l-103 -193q-25 -47 -25 -63q0 -25 42 -37v-27h-282zM483 429h357v579h-47z" />
<glyph unicode="&#xe7;" horiz-adv-x="1443" d="M93 562q0 275 215 443q179 139 450 139q240 0 459 -118q19 -10 29 -10q21 0 47 34l24 -13l-125 -215l-23 15q7 26 7 40q0 21 -40 47q-161 104 -378 104q-212 0 -355 -117q-160 -131 -160 -343q0 -230 177 -367q139 -109 332 -109q218 0 379 127q63 50 63 73q0 17 -17 51 l23 15l156 -200l-21 -18q-35 31 -50 31q-8 0 -24 -13q-123 -96 -246.5 -139t-276.5 -43q-267 0 -440 144q-87 72 -139 171q-66 126 -66 271zM531 -360l16 36q42 -13 79 -13q113 0 113 82q0 68 -62 68q-33 0 -58 -27l-20 12l51 104q22 2 40 2q86 0 136 -37t50 -100 q0 -68 -50 -109q-49 -41 -141 -41q-90 0 -154 23z" />
<glyph unicode="&#xe8;" horiz-adv-x="1221" d="M120 0v27q39 10 51.5 27.5t12.5 58.5v894q0 42 -13 59t-51 27v27h893q42 0 59 13t27 51h27v-238h-27q-10 39 -27 52t-59 13h-686v-378h437q42 0 59 13t27 51h27v-238h-27q-10 39 -27.5 52t-58.5 13h-437v-415h692q42 0 59.5 13t26.5 52h28v-238h-28q-9 38 -26 51t-59 13 h-900zM416 1506v27h232v-27q-27 -3 -27 -22q0 -6 3 -12l77 -163q11 -24 19 -30t30 -6v-27h-173v27h5q20 0 20 15q0 9 -6 18l-129 173q-17 24 -51 27z" />
<glyph unicode="&#xe9;" horiz-adv-x="1221" d="M120 0v27q39 10 51.5 27.5t12.5 58.5v894q0 42 -13 59t-51 27v27h893q42 0 59 13t27 51h27v-238h-27q-10 39 -27 52t-59 13h-686v-378h437q42 0 59 13t27 51h27v-238h-27q-10 39 -27.5 52t-58.5 13h-437v-415h692q42 0 59.5 13t26.5 52h28v-238h-28q-9 38 -26 51t-59 13 h-900zM539 1246v27q22 0 30 6t20 30l76 163q3 6 3 12q0 19 -27 22v27h232v-27q-34 -3 -51 -27l-129 -173q-6 -9 -6 -18q0 -15 21 -15h4v-27h-173z" />
<glyph unicode="&#xea;" horiz-adv-x="1221" d="M120 0v27q39 10 51.5 27.5t12.5 58.5v894q0 42 -13 59t-51 27v27h893q42 0 59 13t27 51h27v-238h-27q-10 39 -27 52t-59 13h-686v-378h437q42 0 59 13t27 51h27v-238h-27q-10 39 -27.5 52t-58.5 13h-437v-415h692q42 0 59.5 13t26.5 52h28v-238h-28q-9 38 -26 51t-59 13 h-900zM310 1246v27q26 1 37 7.5t36 34.5l146 149q12 12 12 25q0 17 -35 17v27h262v-27q-33 -4 -33 -18q0 -11 18 -28l169 -167q18 -19 48 -20v-27h-235v27q33 3 33 15q0 6 -17 23l-124 131l-128 -134q-10 -10 -10 -17q0 -16 31 -18v-27h-210z" />
<glyph unicode="&#xeb;" horiz-adv-x="1221" d="M120 0v27q39 10 51.5 27.5t12.5 58.5v894q0 42 -13 59t-51 27v27h893q42 0 59 13t27 51h27v-238h-27q-10 39 -27 52t-59 13h-686v-378h437q42 0 59 13t27 51h27v-238h-27q-10 39 -27.5 52t-58.5 13h-437v-415h692q42 0 59.5 13t26.5 52h28v-238h-28q-9 38 -26 51t-59 13 h-900zM368 1373q0 39 27 65.5t66 27.5q39 0 66 -27t27 -67q0 -38 -27.5 -65t-65.5 -27t-65.5 27.5t-27.5 65.5zM720 1373q0 39 27 65.5t66 27.5q39 0 66 -27t27 -67q0 -38 -27.5 -65t-65.5 -27q-39 0 -66 27.5t-27 65.5z" />
<glyph unicode="&#xec;" horiz-adv-x="512" d="M14 1506v27h232v-27q-27 -3 -27 -22q0 -6 3 -12l77 -163q11 -24 19 -30t30 -6v-27h-173v27h5q20 0 20 15q0 9 -6 18l-129 173q-17 24 -51 27zM121 0v27q38 10 51 27.5t13 58.5v894q0 42 -13 59t-51 27v27h271v-27q-38 -10 -51 -27t-13 -59v-894q0 -41 13 -58.5t51 -27.5 v-27h-271z" />
<glyph unicode="&#xed;" horiz-adv-x="512" d="M120 0v27q38 10 51 27.5t13 58.5v894q0 42 -13 59t-51 27v27h271v-27q-38 -10 -51 -27t-13 -59v-894q0 -41 13 -58.5t51 -27.5v-27h-271zM164 1246v27q22 0 30 6t20 30l76 163q3 6 3 12q0 19 -27 22v27h232v-27q-34 -3 -51 -27l-129 -173q-6 -9 -6 -18q0 -15 21 -15h4 v-27h-173z" />
<glyph unicode="&#xee;" horiz-adv-x="512" d="M-26 1246v27q41 1 73 42l98 149q12 18 12 24q0 18 -35 18v27h262v-27q-32 -3 -32 -18q0 -9 14 -28l117 -167q28 -18 55 -20v-27h-221v27q34 3 33 15q0 6 -7 13l-10 10l-90 138l-94 -141q-10 -14 -10 -17q0 -16 31 -18v-27h-196zM121 0v27q38 10 51 27.5t13 58.5v894 q0 42 -13 59t-51 27v27h271v-27q-38 -10 -51 -27t-13 -59v-894q0 -41 13 -58.5t51 -27.5v-27h-271z" />
<glyph unicode="&#xef;" horiz-adv-x="512" d="M34 1373q0 39 27 65.5t66 27.5q39 0 66 -27t27 -67q0 -38 -27.5 -65t-65.5 -27t-65.5 27.5t-27.5 65.5zM120 0v27q38 10 51 27.5t13 58.5v894q0 42 -13 59t-51 27v27h271v-27q-38 -10 -51 -27t-13 -59v-894q0 -41 13 -58.5t51 -27.5v-27h-271zM290 1373q0 39 27 65.5 t66 27.5q39 0 66 -27t27 -67q0 -38 -27.5 -65t-65.5 -27t-65.5 27.5t-27.5 65.5z" />
<glyph unicode="&#xf0;" horiz-adv-x="1401" d="M27 461v231h23q8 -37 19.5 -50.5t33.5 -13.5h81v379q0 41 -13 58.5t-51 27.5v27h566q227 0 338 -53q138 -67 216 -222q68 -134 68 -285q0 -177 -90 -325q-78 -129 -197.5 -182t-334.5 -53h-566v27q38 10 51 27.5t13 58.5v413h-81q-22 0 -33.5 -14t-19.5 -51h-23zM327 109 h351q199 0 291 54q103 60 152 186q37 95 37 211q0 204 -105 327q-58 68 -143 96t-232 28h-351v-383h292q22 0 33.5 14t19.5 50h24v-231h-24q-8 37 -19 51t-34 14h-292v-417z" />
<glyph unicode="&#xf1;" horiz-adv-x="1434" d="M120 0v27q39 10 51.5 27.5t12.5 58.5v894q0 42 -13 59t-51 27v27h364v-27q-52 -17 -52 -52q0 -30 38 -72l661 -740v778q0 42 -13 59t-51 27v27h247v-27q-38 -10 -51 -27t-13 -59v-894q0 -41 12.5 -58.5t51.5 -27.5v-27h-293v27q52 13 52 41q0 21 -48 75l-722 802v-832 q0 -41 12.5 -58.5t51.5 -27.5v-27h-247zM404 1355l13 18q13 -4 21 -4q18 0 35 23q57 84 148 84q27 0 58 -12l145 -54q25 -10 47 -10q20 0 37.5 16t17.5 35q0 14 -16 31l16 19l130 -84l-14 -23q-14 6 -22 6q-12 0 -25 -18q-64 -96 -138 -96q-35 0 -78 16l-144 53q-19 7 -40 7 q-20 0 -38.5 -16.5t-18.5 -34.5q0 -11 13 -28l-15 -18z" />
<glyph unicode="&#xf2;" horiz-adv-x="1536" d="M93 560q0 177 95 318q101 149 283 217q125 47 295 49q299 0 482 -156q195 -165 195 -436q0 -169 -96 -310q-181 -266 -579 -266q-297 0 -480 156q-195 166 -195 428zM243 560q0 -188 130 -318q149 -150 395 -150t395 150q130 130 130 312q0 197 -130 324 q-150 148 -397 150q-244 0 -393 -150q-130 -130 -130 -318zM539 1506v27h232v-27q-27 -3 -27 -22q0 -6 3 -12l77 -163q11 -24 19 -30t30 -6v-27h-173v27h5q20 0 20 15q0 9 -6 18l-129 173q-17 24 -51 27z" />
<glyph unicode="&#xf3;" horiz-adv-x="1536" d="M93 560q0 177 95 318q101 149 283 217q125 47 295 49q299 0 482 -156q195 -165 195 -436q0 -169 -96 -310q-181 -266 -579 -266q-297 0 -480 156q-195 166 -195 428zM243 560q0 -188 130 -318q149 -150 395 -150t395 150q130 130 130 312q0 197 -130 324 q-150 148 -397 150q-244 0 -393 -150q-130 -130 -130 -318zM669 1246v27q22 0 30 6t20 30l76 163q3 6 3 12q0 19 -27 22v27h232v-27q-34 -3 -51 -27l-129 -173q-6 -9 -6 -18q0 -15 21 -15h4v-27h-173z" />
<glyph unicode="&#xf4;" horiz-adv-x="1536" d="M93 560q0 177 95 318q101 149 283 217q125 47 295 49q299 0 482 -156q195 -165 195 -436q0 -169 -96 -310q-181 -266 -579 -266q-297 0 -480 156q-195 166 -195 428zM243 560q0 -188 130 -318q149 -150 395 -150t395 150q130 130 130 312q0 197 -130 324 q-150 148 -397 150q-244 0 -393 -150q-130 -130 -130 -318zM445 1246v27q26 1 37 7.5t36 34.5l146 149q12 12 12 25q0 17 -35 17v27h262v-27q-33 -4 -33 -18q0 -11 18 -28l169 -167q18 -19 48 -20v-27h-235v27q33 3 33 15q0 6 -17 23l-124 131l-128 -134q-10 -10 -10 -17 q0 -16 31 -18v-27h-210z" />
<glyph unicode="&#xf5;" horiz-adv-x="1536" d="M93 560q0 177 95 318q101 149 283 217q125 47 295 49q299 0 482 -156q195 -165 195 -436q0 -169 -96 -310q-181 -266 -579 -266q-297 0 -480 156q-195 166 -195 428zM243 560q0 -188 130 -318q149 -150 395 -150t395 150q130 130 130 312q0 197 -130 324 q-150 148 -397 150q-244 0 -393 -150q-130 -130 -130 -318zM455 1355l13 18q13 -4 21 -4q18 0 35 23q57 84 148 84q27 0 58 -12l145 -54q25 -10 47 -10q20 0 37.5 16t17.5 35q0 14 -16 31l16 19l130 -84l-14 -23q-14 6 -22 6q-12 0 -25 -18q-64 -96 -138 -96q-35 0 -78 16 l-144 53q-19 7 -40 7q-20 0 -38.5 -16.5t-18.5 -34.5q0 -11 13 -28l-15 -18z" />
<glyph unicode="&#xf6;" horiz-adv-x="1536" d="M93 560q0 177 95 318q101 149 283 217q125 47 295 49q299 0 482 -156q195 -165 195 -436q0 -169 -96 -310q-181 -266 -579 -266q-297 0 -480 156q-195 166 -195 428zM243 560q0 -188 130 -318q149 -150 395 -150t395 150q130 130 130 312q0 197 -130 324 q-150 148 -397 150q-244 0 -393 -150q-130 -130 -130 -318zM502 1373q0 39 27 65.5t66 27.5q39 0 66 -27t27 -67q0 -38 -27.5 -65t-65.5 -27q-39 0 -66 27t-27 66zM860 1373q0 39 27 65.5t66 27.5q39 0 66 -27t27 -67q0 -38 -27.5 -65t-65.5 -27q-39 0 -66 27t-27 66z" />
<glyph unicode="&#xf7;" horiz-adv-x="1570" d="M238 554v258h34q22 -37 54 -50.5t97 -13.5h722q65 0 98 14t54 50h36v-258h-36q-22 37 -54 50.5t-97 13.5h-723q-65 0 -97.5 -13.5t-54.5 -50.5h-33zM665 250q0 49 34.5 83.5t85.5 35.5q50 0 85 -35t35 -86q0 -49 -35.5 -84t-84.5 -35t-84.5 35.5t-35.5 85.5zM665 1117 q0 49 34.5 83.5t85.5 35.5q50 0 85 -35t35 -86q0 -49 -35.5 -84t-84.5 -35t-84.5 35.5t-35.5 85.5z" />
<glyph unicode="&#xf8;" horiz-adv-x="1536" d="M93 560q0 262 195 428q182 156 485 156q95 0 161.5 -13t171.5 -53l14 18q38 53 38 76q0 26 -49 39v27h289v-27q-41 -7 -73 -35t-97 -115l-28 -37q75 -51 125 -116q118 -152 118 -348q0 -262 -195 -428q-183 -156 -486 -156q-185 0 -334 66l-20 -25q-46 -58 -46 -74 q0 -27 47 -35v-27h-285l1 27q70 5 168 126l46 59q-246 180 -246 467zM243 560q0 -111 42.5 -197.5t135.5 -163.5l605 776q-84 32 -134.5 42.5t-117.5 10.5q-253 0 -401 -150q-130 -130 -130 -318zM510 146q122 -54 257 -54q247 0 396 150q130 130 130 318q0 213 -175 358z " />
<glyph unicode="&#xf9;" horiz-adv-x="1342" d="M98 1093v27h271v-27q-38 -10 -51 -27.5t-13 -58.5v-575q0 -133 13 -183.5t57 -84.5q90 -72 308 -72q241 0 326 88q31 33 41 81.5t10 170.5v575q0 41 -13 58.5t-51 27.5v27h247v-27q-38 -10 -51 -27t-13 -59v-604q0 -154 -26 -217q-44 -108 -161 -159t-322 -51 q-294 0 -412 109q-57 52 -76.5 117t-19.5 201v604q0 42 -13 59t-51 27zM449 1506v27h232v-27q-27 -3 -27 -22q0 -6 3 -12l77 -163q11 -24 19 -30t30 -6v-27h-173v27h5q20 0 20 15q0 9 -6 18l-129 173q-17 24 -51 27z" />
<glyph unicode="&#xfa;" horiz-adv-x="1342" d="M98 1093v27h271v-27q-38 -10 -51 -27.5t-13 -58.5v-575q0 -133 13 -183.5t57 -84.5q90 -72 308 -72q241 0 326 88q31 33 41 81.5t10 170.5v575q0 41 -13 58.5t-51 27.5v27h247v-27q-38 -10 -51 -27t-13 -59v-604q0 -154 -26 -217q-44 -108 -161 -159t-322 -51 q-294 0 -412 109q-57 52 -76.5 117t-19.5 201v604q0 42 -13 59t-51 27zM569 1246v27q22 0 30 6t20 30l76 163q3 6 3 12q0 19 -27 22v27h232v-27q-34 -3 -51 -27l-129 -173q-6 -9 -6 -18q0 -15 21 -15h4v-27h-173z" />
<glyph unicode="&#xfb;" horiz-adv-x="1342" d="M98 1093v27h271v-27q-38 -10 -51 -27.5t-13 -58.5v-575q0 -133 13 -183.5t57 -84.5q90 -72 308 -72q241 0 326 88q31 33 41 81.5t10 170.5v575q0 41 -13 58.5t-51 27.5v27h247v-27q-38 -10 -51 -27t-13 -59v-604q0 -154 -26 -217q-44 -108 -161 -159t-322 -51 q-294 0 -412 109q-57 52 -76.5 117t-19.5 201v604q0 42 -13 59t-51 27zM348 1246v27q26 1 37 7.5t36 34.5l146 149q12 12 12 25q0 17 -35 17v27h262v-27q-33 -4 -33 -18q0 -11 18 -28l169 -167q18 -19 48 -20v-27h-235v27q33 3 33 15q0 6 -17 23l-124 131l-128 -134 q-10 -10 -10 -17q0 -16 31 -18v-27h-210z" />
<glyph unicode="&#xfc;" horiz-adv-x="1342" d="M98 1093v27h271v-27q-38 -10 -51 -27.5t-13 -58.5v-575q0 -133 13 -183.5t57 -84.5q90 -72 308 -72q241 0 326 88q31 33 41 81.5t10 170.5v575q0 41 -13 58.5t-51 27.5v27h247v-27q-38 -10 -51 -27t-13 -59v-604q0 -154 -26 -217q-44 -108 -161 -159t-322 -51 q-294 0 -412 109q-57 52 -76.5 117t-19.5 201v604q0 42 -13 59t-51 27zM411 1373q0 39 27 65.5t66 27.5q39 0 66 -27t27 -67q0 -38 -27.5 -65t-65.5 -27t-65.5 27.5t-27.5 65.5zM763 1373q0 39 27 65.5t66 27.5q39 0 66 -27t27 -67q0 -38 -27.5 -65t-65.5 -27 q-39 0 -66 27.5t-27 65.5z" />
<glyph unicode="&#xfd;" horiz-adv-x="1114" d="M-12 1093v27h316v-27q-44 -7 -44 -38q0 -28 27 -63l295 -387l267 386q28 41 28 62q0 34 -45 40v27h292v-27q-45 -15 -83 -51.5t-104 -128.5l-297 -419v-381q0 -41 12.5 -58.5t51.5 -27.5v-27h-271v27q38 10 51 27.5t13 58.5v381l-345 450q-63 83 -93 110t-71 39z M465 1246v27q22 0 30 6t20 30l76 163q3 6 3 12q0 19 -27 22v27h232v-27q-34 -3 -51 -27l-129 -173q-6 -9 -6 -18q0 -15 21 -15h4v-27h-173z" />
<glyph unicode="&#xfe;" horiz-adv-x="1160" d="M120 0v27q38 10 51 27.5t13 58.5v894q0 42 -13 59t-51 27v27h271v-27q-38 -10 -51 -27t-13 -59v-85h345q123 0 187 -11t115 -42q61 -36 96 -104.5t35 -151.5t-34.5 -150t-97.5 -104q-52 -32 -115 -43t-186 -11h-345v-192q0 -42 12.5 -59t51.5 -27v-27h-271zM327 414h326 q107 0 158 8.5t87 32.5q70 47 70 158q0 112 -70 159q-36 24 -87 32.5t-158 8.5h-326v-399z" />
<glyph unicode="&#xff;" horiz-adv-x="1114" d="M-12 1093v27h316v-27q-44 -7 -44 -38q0 -28 27 -63l295 -387l267 386q28 41 28 62q0 34 -45 40v27h292v-27q-45 -15 -83 -51.5t-104 -128.5l-297 -419v-381q0 -41 12.5 -58.5t51.5 -27.5v-27h-271v27q38 10 51 27.5t13 58.5v381l-345 450q-63 83 -93 110t-71 39z M298 1373q0 39 27 65.5t66 27.5q39 0 66 -27t27 -67q0 -38 -27.5 -65t-65.5 -27t-65.5 27.5t-27.5 65.5zM650 1373q0 39 27 65.5t66 27.5q39 0 66 -27t27 -67q0 -38 -27.5 -65t-65.5 -27q-39 0 -66 27.5t-27 65.5z" />
<glyph unicode="&#x152;" horiz-adv-x="2186" d="M116 683q0 245 146 424q133 162 339 226q138 43 330 43l285 -11h757q42 0 59 13t27 52h32v-258h-32q-9 37 -26.5 50t-59.5 13h-753v-468h456q42 0 59.5 13t26.5 51h32v-258h-32q-9 38 -26.5 51t-59.5 13h-456v-507h766q42 0 59.5 13t26.5 51h32v-258h-31q-10 38 -27.5 51 t-58.5 13h-771q-4 1 -85 -3q-132 -7 -204 -7q-327 0 -532 145q-128 92 -200 225q-79 147 -79 323zM280 683q0 -178 104 -322q170 -234 551 -234q46 0 128 3v1105q-72 4 -128 4q-289 0 -456 -133q-90 -72 -143 -180q-56 -115 -56 -243z" />
<glyph unicode="&#x153;" horiz-adv-x="1738" d="M57 560q0 178 110 325q182 245 551 245q47 0 110 -4q108 -6 178 -6h555q42 0 59 13t27 51h27v-238h-27q-9 39 -26.5 52t-59.5 13h-611v-378h361q42 0 59.5 13t27.5 51h27v-238h-27q-10 39 -27.5 52t-59.5 13h-361v-415h617q42 0 59.5 13t26.5 52h28v-238h-28 q-9 38 -26 51t-59 13h-562q-73 0 -178 -6q-64 -4 -111 -4q-267 0 -443 136q-103 79 -161 196q-56 114 -56 238zM207 560q0 -214 151 -338q141 -116 368 -116q35 0 81 3v902q-48 3 -79 3q-230 0 -370 -116q-151 -125 -151 -338z" />
<glyph unicode="&#x178;" horiz-adv-x="1333" d="M-15 1333v32h346v-32q-47 -12 -47 -39q0 -33 47 -97l347 -472l346 488q44 62 44 84q0 25 -44 36v32h322v-32q-49 -9 -84 -44q-72 -76 -93 -107l-418 -578v-486q0 -41 13 -58.5t51 -27.5v-32h-285v32q38 10 51 27t13 59v486l-441 578q-72 94 -99.5 119t-68.5 32zM410 1605 q0 39 27 65.5t66 27.5q39 0 66 -27t27 -67q0 -38 -27.5 -65t-65.5 -27t-65.5 27.5t-27.5 65.5zM762 1605q0 39 27 65.5t66 27.5q39 0 66 -27t27 -67q0 -38 -27.5 -65t-65.5 -27t-65.5 27t-27.5 66z" />
<glyph unicode="&#x2c6;" d="M182 1246v27q26 1 37 7.5t36 34.5l146 149q12 12 12 25q0 17 -35 17v27h262v-27q-33 -4 -33 -18q0 -11 18 -28l169 -167q18 -19 48 -20v-27h-235v27q33 3 33 15q0 6 -17 23l-124 131l-128 -134q-10 -10 -10 -17q0 -16 31 -18v-27h-210z" />
<glyph unicode="&#x2dc;" d="M186 1355l13 18q13 -4 21 -4q18 0 35 23q57 84 148 84q27 0 58 -12l145 -54q25 -10 47 -10q20 0 37.5 16t17.5 35q0 14 -16 31l16 19l130 -84l-14 -23q-14 6 -22 6q-12 0 -25 -18q-64 -96 -138 -96q-35 0 -78 16l-144 53q-19 7 -40 7q-20 0 -38.5 -16.5t-18.5 -34.5 q0 -11 13 -28l-15 -18z" />
<glyph unicode="&#x2000;" horiz-adv-x="893" />
<glyph unicode="&#x2001;" horiz-adv-x="1786" />
<glyph unicode="&#x2002;" horiz-adv-x="893" />
<glyph unicode="&#x2003;" horiz-adv-x="1786" />
<glyph unicode="&#x2004;" horiz-adv-x="595" />
<glyph unicode="&#x2005;" horiz-adv-x="446" />
<glyph unicode="&#x2006;" horiz-adv-x="297" />
<glyph unicode="&#x2007;" horiz-adv-x="297" />
<glyph unicode="&#x2008;" horiz-adv-x="223" />
<glyph unicode="&#x2009;" horiz-adv-x="357" />
<glyph unicode="&#x200a;" horiz-adv-x="99" />
<glyph unicode="&#x2010;" horiz-adv-x="407" d="M0 431v258h23q8 -37 19.5 -50.5t33.5 -13.5h254q22 0 34 14t19 50h24v-258h-24q-8 37 -19 50.5t-34 13.5h-254q-22 0 -33.5 -13.5t-19.5 -50.5h-23z" />
<glyph unicode="&#x2011;" horiz-adv-x="407" d="M0 431v258h23q8 -37 19.5 -50.5t33.5 -13.5h254q22 0 34 14t19 50h24v-258h-24q-8 37 -19 50.5t-34 13.5h-254q-22 0 -33.5 -13.5t-19.5 -50.5h-23z" />
<glyph unicode="&#x2012;" horiz-adv-x="407" d="M0 431v258h23q8 -37 19.5 -50.5t33.5 -13.5h254q22 0 34 14t19 50h24v-258h-24q-8 37 -19 50.5t-34 13.5h-254q-22 0 -33.5 -13.5t-19.5 -50.5h-23z" />
<glyph unicode="&#x2013;" horiz-adv-x="1571" d="M85 431v258h37q12 -36 30 -50t54 -14h1160q36 0 54 14t30 50h37v-258h-37q-12 36 -30 50t-54 14h-1160q-36 0 -54 -14t-30 -50h-37z" />
<glyph unicode="&#x2014;" horiz-adv-x="1215" d="M0 431v258h37q12 -36 30 -50t54 -14h973q36 0 54 14t30 50h37v-258h-37q-12 36 -30 50t-54 14h-973q-36 0 -54 -14t-30 -50h-37z" />
<glyph unicode="&#x2018;" horiz-adv-x="573" d="M177 1120q0 88 42.5 151.5t137.5 117.5l31 -35q-67 -41 -97 -80.5t-40 -98.5q28 6 43 6q46 0 73.5 -29.5t27.5 -77.5q0 -49 -29.5 -80.5t-75.5 -31.5q-52 0 -82.5 43t-30.5 115z" />
<glyph unicode="&#x2019;" horiz-adv-x="573" d="M177 1277q0 49 29.5 80.5t75.5 31.5q52 0 83 -43t31 -115q0 -89 -42.5 -152t-138.5 -117l-30 35q66 41 96 80.5t40 99.5q-27 -7 -42 -7q-46 0 -74 29.5t-28 77.5z" />
<glyph unicode="&#x201a;" horiz-adv-x="573" d="M177 83q0 49 29.5 80.5t75.5 31.5q52 0 83 -43t31 -115q0 -89 -42.5 -152t-138.5 -117l-30 35q66 41 96 80.5t40 98.5q-27 -6 -42 -6q-46 0 -74 29.5t-28 77.5z" />
<glyph unicode="&#x201c;" horiz-adv-x="969" d="M177 1120q0 88 42.5 151.5t137.5 117.5l31 -35q-67 -41 -97 -80.5t-40 -98.5q28 6 43 6q46 0 73.5 -29.5t27.5 -77.5q0 -49 -29.5 -80.5t-75.5 -31.5q-52 0 -82.5 43t-30.5 115zM573 1120q0 88 42.5 151.5t137.5 117.5l31 -35q-67 -41 -97 -80.5t-40 -98.5q28 6 43 6 q46 0 73.5 -29.5t27.5 -77.5q0 -49 -29.5 -80.5t-75.5 -31.5q-51 0 -82 43t-31 115z" />
<glyph unicode="&#x201d;" horiz-adv-x="969" d="M177 1277q0 49 29.5 80.5t75.5 31.5q52 0 83 -43t31 -115q0 -89 -42.5 -152t-138.5 -117l-30 35q66 41 96 80.5t40 99.5q-27 -7 -42 -7q-46 0 -74 29.5t-28 77.5zM573 1277q0 49 29.5 80.5t75.5 31.5q52 0 83 -43t31 -115q0 -89 -42.5 -152t-138.5 -117l-31 35 q67 41 97 80.5t40 99.5q-27 -7 -42 -7q-47 0 -74.5 29.5t-27.5 77.5z" />
<glyph unicode="&#x201e;" horiz-adv-x="969" d="M177 83q0 49 29.5 80.5t75.5 31.5q52 0 83 -43t31 -115q0 -89 -42.5 -152t-138.5 -117l-30 35q66 41 96 80.5t40 98.5q-27 -6 -42 -6q-46 0 -74 29.5t-28 77.5zM573 83q0 49 29.5 80.5t75.5 31.5q52 0 83 -43t31 -115q0 -89 -42.5 -152t-138.5 -117l-31 35q67 41 97 80.5 t40 98.5q-27 -6 -42 -6q-47 0 -74.5 29.5t-27.5 77.5z" />
<glyph unicode="&#x2022;" horiz-adv-x="1365" d="M401 693q0 121 84 202q84 83 204 83q113 0 196 -83q84 -83 84 -201t-84 -201q-82 -83 -200 -83t-200 83q-84 83 -84 200z" />
<glyph unicode="&#x2026;" horiz-adv-x="1720" d="M177 85q0 45 31.5 76.5t77.5 32.5q46 0 77.5 -32t31.5 -78q0 -44 -32.5 -76t-76.5 -32q-45 0 -77 32.5t-32 76.5zM750 85q0 45 31.5 76.5t77.5 32.5q46 0 77.5 -32t31.5 -78q0 -44 -32.5 -76t-76.5 -32q-45 0 -77 32t-32 77zM1324 85q0 45 31.5 76.5t77.5 32.5 q46 0 77.5 -32t31.5 -78q0 -44 -32.5 -76t-76.5 -32q-45 0 -77 32t-32 77z" />
<glyph unicode="&#x202f;" horiz-adv-x="357" />
<glyph unicode="&#x2039;" horiz-adv-x="661" d="M150 560l195 400h138l-196 -400l196 -401h-138z" />
<glyph unicode="&#x203a;" horiz-adv-x="661" d="M177 159l197 401l-197 400h138l195 -400l-195 -401h-138z" />
<glyph unicode="&#x205f;" horiz-adv-x="446" />
<glyph unicode="&#x2122;" horiz-adv-x="1911" d="M5 1243v158h31q5 -23 13.5 -29.5t31.5 -6.5h638q24 0 32 6.5t14 29.5h31v-158h-31q-5 23 -13.5 29.5t-32.5 6.5h-266v-619q0 -22 7 -30t31 -13v-30h-182v30q24 6 31 13.5t7 29.5v619h-266q-23 0 -31 -6.5t-14 -29.5h-31zM883 587v30q24 6 31 13.5t7 29.5v632q0 22 -7 30 t-31 13v30h223v-30q-29 -9 -29 -19q0 -4 19 -39l261 -493l263 497q13 28 13 35q0 9 -29 19v30h225v-30q-24 -5 -31 -13t-7 -30v-632q0 -22 7 -29.5t31 -13.5v-30h-182v30q24 5 31 13t7 30v549l-335 -630l-331 629v-548q0 -22 7 -29.5t31 -13.5v-30h-174z" />
<glyph unicode="&#xe000;" horiz-adv-x="1120" d="M0 0v1120h1120v-1120h-1120z" />
</font>
</defs>
</svg>
