<?xml version="1.0" standalone="no"?>
<!DOCTYPE svg PUBLIC "-//W3C//DTD SVG 1.1//EN" "http://www.w3.org/Graphics/SVG/1.1/DTD/svg11.dtd" >
<svg xmlns="http://www.w3.org/2000/svg">
<metadata></metadata>
<defs>
<font id="arsenalbold" horiz-adv-x="1073" >
<font-face units-per-em="2048" ascent="1536" descent="-512" />
<missing-glyph horiz-adv-x="522" />
<glyph unicode="&#xfb01;" horiz-adv-x="1177" d="M76 866v123l96 29v151q0 186 84.5 286.5t284.5 100.5q130 0 272 -102q43 37 105 37t104 -39q45 -48 45 -117q0 -70 -45 -118q-45 -39 -104 -39q-62 0 -109 41q-47 47 -47 116v17q-92 63 -168 63q-60 0 -91 -22.5t-45 -81t-14 -172.5v-115h261v-158h-261v-866h-272v866 h-96zM780 0v1024h273v-1024h-273z" />
<glyph unicode="&#xfb02;" horiz-adv-x="1196" d="M72 866v123l100 29v151q0 177 80.5 282t228.5 105q142 0 318 -69v41l272 16v-1544h-272v1348q-165 71 -242 71q-44 0 -67.5 -23.5t-34.5 -83.5t-11 -173v-115h256v-158h-256v-866h-272v866h-100z" />
<glyph horiz-adv-x="2048" />
<glyph horiz-adv-x="2048" />
<glyph unicode="&#xd;" horiz-adv-x="2048" />
<glyph unicode=" "  horiz-adv-x="522" />
<glyph unicode="&#x09;" horiz-adv-x="522" />
<glyph unicode="&#xa0;" horiz-adv-x="522" />
<glyph unicode="!" horiz-adv-x="681" d="M186 131q0 70 50 123q46 43 114 43q67 0 113 -43q49 -52 49 -123q0 -72 -49 -121q-46 -43 -113 -43q-68 0 -114 43q-50 50 -50 121zM193 1411v125h311v-125l-88 -940h-137z" />
<glyph unicode="&#x22;" horiz-adv-x="815" d="M63 1536l250 -8l-96 -537h-129zM455 1536l250 -8l-97 -537h-129z" />
<glyph unicode="#" horiz-adv-x="1060" d="M92 381v131h164l66 305h-230v131h256l60 277l110 -33l-51 -244h240l49 238l110 -33l-43 -205h144v-131h-170l-64 -305h234v-131h-262l-58 -279l-110 35l51 244h-242l-49 -240l-111 35l43 205h-137zM375 512h239l64 305h-240z" />
<glyph unicode="$" horiz-adv-x="854" d="M49 270l76 107q4 -5 10.5 -13.5t29.5 -30t48 -38t63 -30t76 -13.5q75 0 116.5 39.5t41.5 101.5q0 42 -23 74t-60 53.5t-81.5 41t-89 44.5t-81.5 57t-60 84.5t-23 120.5q0 119 66.5 196.5t175.5 106.5l26 263h134l26 -252q54 -7 111.5 -24t88.5 -30l30 -14l-37 -137 q-15 9 -40 21.5t-86.5 33.5t-105.5 21q-63 0 -98 -30.5t-35 -82.5q0 -42 24.5 -75t64 -56t87.5 -45t95.5 -48.5t87 -59.5t64 -85.5t24.5 -119.5q0 -125 -71 -211.5t-204 -112.5l-20 -229h-133l-29 221q-60 7 -111.5 25t-82.5 39t-54 41t-32 33z" />
<glyph unicode="%" horiz-adv-x="1775" d="M74 954q0 186 95 299t261 113q163 0 260.5 -114t97.5 -298q0 -189 -94 -303t-264 -114q-174 0 -265 113t-91 304zM299 958q0 -154 30.5 -223t98.5 -69q70 0 103.5 70t33.5 222q0 151 -32.5 216t-102.5 65t-100.5 -64.5t-30.5 -216.5zM528 16l553 1284l138 -40l-555 -1285 zM987 379q0 186 95 299t261 113q163 0 261 -114t98 -298q0 -189 -94.5 -303.5t-264.5 -114.5q-173 0 -264.5 113.5t-91.5 304.5zM1212 383q0 -154 30.5 -223.5t98.5 -69.5q70 0 104 70.5t34 222.5q0 151 -33 216t-103 65t-100.5 -64.5t-30.5 -216.5z" />
<glyph unicode="&#x26;" horiz-adv-x="1312" d="M74 367q0 68 22.5 124t61.5 95.5t84 66.5t98 45q-178 95 -178 301q0 165 107.5 259t283.5 94q61 0 129.5 -16t106.5 -32l38 -16l-22 -133q-111 59 -197 59q-83 0 -125.5 -53t-42.5 -176q0 -218 113 -225h229l133 264h107v-264h227v-135h-227v-283q0 -95 11.5 -143 t34.5 -64t69 -16q29 0 57.5 6.5t42.5 12.5l14 7l9 -118q-6 -6 -18.5 -14t-66 -22t-122.5 -14q-168 0 -234 101q-109 -101 -295 -101q-229 0 -339.5 105.5t-110.5 284.5zM365 371q0 -139 46.5 -196.5t159.5 -57.5q129 0 201 90q-8 47 -8 119v299h-229q-73 -2 -121.5 -63.5 t-48.5 -190.5z" />
<glyph unicode="'" horiz-adv-x="423" d="M63 1536l250 -8l-96 -537h-129z" />
<glyph unicode="(" horiz-adv-x="735" d="M158 557q0 138 21.5 265t56 219t76 171t82.5 130.5t75.5 88t56.5 52.5l21 16l117 -72q-10 -10 -26.5 -29.5t-58.5 -94t-74 -165t-58.5 -247t-26.5 -334.5q0 -132 13.5 -250.5t35 -203t47.5 -156t52 -117t47.5 -77t34.5 -45.5l14 -13l-109 -70q-8 5 -22.5 16t-55.5 50.5 t-78.5 86.5t-83.5 127.5t-79 170t-55.5 216.5t-22.5 265z" />
<glyph unicode=")" horiz-adv-x="735" d="M72 -305q5 5 13.5 15t33.5 48t48 82.5t51 119.5t48 159t33.5 202t13.5 246t-13.5 245t-34.5 201t-46.5 156t-51.5 118t-47 79t-34 47l-14 14l108 72q8 -5 22.5 -16t55.5 -50.5t78 -86.5t83 -127.5t78.5 -170t55 -216.5t22.5 -265q0 -109 -13.5 -210.5t-36.5 -182 t-52.5 -153t-62 -126.5t-65.5 -100t-62.5 -76.5t-52.5 -52.5t-36 -32l-14 -9z" />
<glyph unicode="*" horiz-adv-x="839" d="M20 1028l78 264l273 -198l-76 370h252l-84 -368l278 196l76 -264l-325 -31l251 -252l-202 -163l-121 350l-123 -350l-201 163l250 248z" />
<glyph unicode="+" horiz-adv-x="933" d="M63 487v152h334v377h146v-377h327v-152h-327v-378h-146v378h-334z" />
<glyph unicode="," horiz-adv-x="542" d="M115 178q0 66 45 111q42 39 100 39q57 0 102 -39q20 -24 31 -45q25 -55 25 -119q0 -118 -66 -253.5t-162 -213.5l-69 76q67 61 110.5 141t49.5 156q-3 0 -11 -1t-12 -1q-56 0 -98 39q-45 42 -45 110z" />
<glyph unicode="-" horiz-adv-x="681" d="M63 487v152h558v-152h-558z" />
<glyph unicode="." horiz-adv-x="608" d="M139 131q0 71 49 123q46 43 115 43q67 0 113 -43q49 -52 49 -123q0 -72 -49 -121q-46 -43 -113 -43q-69 0 -115 43q-49 49 -49 121z" />
<glyph unicode="/" horiz-adv-x="935" d="M16 -512l752 2048h184l-751 -2048h-185z" />
<glyph unicode="0" horiz-adv-x="1185" d="M90 662q0 690 504 690q502 0 502 -690q0 -685 -502 -685q-504 0 -504 685zM397 662q0 -219 17.5 -333t59 -162t120.5 -48q78 0 119.5 47.5t59.5 162.5t18 333q0 219 -18 335t-59.5 164.5t-119.5 48.5q-79 0 -120.5 -48.5t-59 -164t-17.5 -335.5z" />
<glyph unicode="1" horiz-adv-x="815" d="M86 1157l307 174h219v-1331h-268v1143l-203 -109z" />
<glyph unicode="2" horiz-adv-x="991" d="M70 0v211q52 20 117.5 63t139 112.5t134 151t100 188.5t39.5 216q0 102 -22 159t-62.5 78t-109.5 21q-47 0 -113 -25t-108 -50l-42 -25l-28 143q7 4 19 11.5t50 26.5t76.5 33t92 26t102.5 12q219 0 332.5 -108t113.5 -283q0 -85 -33 -172.5t-83 -160t-121 -144.5 t-137 -125t-140 -103h533v-256h-850z" />
<glyph unicode="3" horiz-adv-x="1007" d="M72 127l73 121q5 -5 14.5 -13.5t39.5 -30t61.5 -38t77.5 -30t90 -13.5q110 0 161.5 61.5t51.5 202.5q0 132 -35 189t-112 57q-52 0 -107 -55l-4 -5l-84 95l328 405h-492l15 258h718v-172l-327 -395h12q162 0 270.5 -101t108.5 -278q0 -98 -39.5 -177t-105.5 -128.5 t-149 -76t-175 -26.5q-76 0 -144 15.5t-111 37.5t-75.5 44t-46.5 38z" />
<glyph unicode="4" horiz-adv-x="1091" d="M61 446q91 163 185.5 429.5t140.5 488.5l260 -33q-27 -115 -74 -236t-109.5 -240.5t-110 -201t-113.5 -186.5h387l73 663h205v-663h131v-117l-131 -24v-326h-278v326h-551z" />
<glyph unicode="5" horiz-adv-x="1001" d="M45 125l82 115q4 -5 11.5 -13t32.5 -28t53 -35.5t71 -28t88 -12.5q120 0 184 69.5t64 233.5q0 152 -54.5 217.5t-154.5 65.5q-52 0 -92.5 -19t-59.5 -45l-10 -20l-96 14l78 692h610l-14 -266h-486l-24 -244q63 19 118 19q216 0 346 -105t130 -303q0 -92 -30 -169 t-80.5 -129t-117.5 -88t-139.5 -52.5t-148.5 -16.5q-70 0 -133 15t-103 37t-69.5 44t-42.5 37z" />
<glyph unicode="6" horiz-adv-x="1085" d="M90 545q0 121 10 194q38 319 163 466t315 147q65 0 139 -20t115 -40l42 -20l-34 -137q-15 8 -39.5 20t-87 32.5t-109.5 20.5q-79 0 -128.5 -36.5t-80 -133t-35.5 -260.5q105 84 228 84q191 0 307.5 -110.5t116.5 -325.5q0 -211 -120.5 -330t-332.5 -119q-223 0 -346 139 t-123 429zM383 455q0 -194 39.5 -268t136.5 -74q88 0 124 72.5t36 244.5q0 162 -37.5 232.5t-126.5 70.5q-96 0 -166 -96q-6 -55 -6 -182z" />
<glyph unicode="7" horiz-adv-x="923" d="M74 1059v272h819v-215q-122 -217 -235.5 -535.5t-170.5 -580.5h-294q33 120 87 256t134 294t130.5 251.5t141.5 257.5h-612z" />
<glyph unicode="8" horiz-adv-x="1097" d="M74 360q0 63 22.5 116t62 90.5t84 63.5t97.5 44q-240 83 -240 315q0 174 122.5 268.5t326.5 94.5q203 0 325.5 -95.5t122.5 -269.5q0 -218 -245 -309q52 -13 95.5 -34.5t86.5 -58t67.5 -95.5t24.5 -134q0 -379 -477 -379q-230 0 -352.5 90.5t-122.5 292.5zM381 365 q0 -142 41.5 -201.5t126.5 -59.5t127.5 60.5t42.5 200.5q0 56 -12 100t-30 70t-43 44t-47 25t-46 10q-27 -4 -51.5 -16.5t-51 -38t-42 -75.5t-15.5 -119zM393 981q0 -67 14.5 -116.5t39.5 -77.5t49.5 -42t52.5 -20q156 31 156 256q0 135 -37.5 189.5t-118.5 54.5 t-118.5 -54.5t-37.5 -189.5z" />
<glyph unicode="9" horiz-adv-x="1085" d="M74 883q0 212 126 340.5t337 128.5q220 0 338 -139t118 -429q0 -85 -4 -143q-13 -172 -60 -303t-117.5 -208t-153.5 -115t-175 -38q-60 0 -113 9.5t-85 22.5t-56 26.5t-33 22.5l-10 10l60 133q4 -3 10.5 -8.5t29 -19.5t46 -24.5t60 -19t73.5 -8.5q42 0 77 11.5t67.5 41.5 t56 77t38.5 122t19 174q-90 -90 -227 -90q-191 0 -306.5 106t-115.5 320zM365 893q0 -162 38 -234.5t125 -72.5q69 0 112.5 39t57.5 102q4 86 4 147q0 192 -38 267.5t-127 75.5t-130.5 -79.5t-41.5 -244.5z" />
<glyph unicode=":" horiz-adv-x="610" d="M139 131q0 71 49 123q46 43 115 43q67 0 113 -43q49 -52 49 -123q0 -72 -49 -121q-46 -43 -113 -43q-69 0 -115 43q-49 49 -49 121zM139 850q0 71 49 123q46 43 115 43q67 0 113 -43q49 -52 49 -123q0 -72 -49 -121q-46 -43 -113 -43q-69 0 -115 43q-49 49 -49 121z" />
<glyph unicode=";" horiz-adv-x="608" d="M139 850q0 71 49 123q46 43 115 43q67 0 113 -43q49 -52 49 -123q0 -72 -49 -121q-46 -43 -113 -43q-69 0 -115 43q-49 49 -49 121zM154 178q0 66 45 111q42 39 100 39q57 0 102 -39q20 -24 31 -45q25 -55 25 -119q0 -118 -66 -253.5t-162 -213.5l-69 76q67 60 110 140.5 t49 156.5q-3 0 -10.5 -1t-11.5 -1q-56 0 -98 39q-45 42 -45 110z" />
<glyph unicode="&#x3c;" horiz-adv-x="774" d="M96 645l490 463l80 -94l-330 -367l338 -368l-88 -95z" />
<glyph unicode="=" d="M63 289v151h949v-151h-949zM63 686v152h949v-152h-949z" />
<glyph unicode="&#x3e;" horiz-adv-x="774" d="M109 279l321 366l-321 369l79 94l490 -463l-490 -461z" />
<glyph unicode="?" horiz-adv-x="911" d="M117 1468q5 4 15.5 9.5t43.5 21t69 27t91 21t110 9.5q81 0 148 -20.5t112.5 -55.5t77 -82t46 -99t14.5 -107q0 -83 -25 -149.5t-64.5 -109.5t-88 -79.5t-96.5 -68.5t-87.5 -66.5t-64.5 -83.5t-25 -111q0 -17 4 -53l-96 -8q-29 91 -29 155q0 47 14.5 85t37.5 65t50.5 52.5 t55 55.5t50.5 65.5t37.5 89.5t14.5 122q0 139 -37.5 201.5t-123.5 62.5q-52 0 -110.5 -20t-90.5 -40l-33 -20zM199 131q0 71 49 123q46 43 114 43q67 0 113 -43q49 -52 49 -123q0 -72 -49 -121q-46 -43 -113 -43q-68 0 -114 43q-49 49 -49 121z" />
<glyph unicode="@" horiz-adv-x="1765" d="M94 377q0 211 55 382.5t162 294.5t271 190t374 67q355 0 539 -187t184 -532q0 -318 -109 -473.5t-296 -155.5q-160 0 -209 90q-71 -92 -207 -92q-157 0 -252.5 109t-95.5 323q0 195 107.5 320t269.5 125q107 0 186 -72l37 35h117v-555q0 -97 16 -133.5t57 -36.5 q28 0 50.5 12t44.5 45.5t36.5 88.5t23.5 147.5t9 216.5q0 316 -122.5 459t-385.5 143q-114 0 -207.5 -27.5t-171 -89t-130.5 -155t-82 -230t-29 -309.5q0 -382 153 -565t437 -183q84 0 161.5 18.5t128 45t89 53.5t55.5 46l18 18l58 -113q-6 -8 -17.5 -22t-56 -50t-98 -63 t-144.5 -49.5t-194 -22.5q-215 0 -375 60.5t-260 176.5t-148.5 278t-48.5 372zM743 393q0 -171 39.5 -244t128.5 -73q86 0 125 92v494q-37 63 -123 63q-92 0 -131 -77t-39 -255z" />
<glyph unicode="A" horiz-adv-x="1245" d="M39 0l442 1331h314l413 -1331h-299l-114 373h-463l-121 -373h-172zM373 502h383l-183 626h-4z" />
<glyph unicode="B" horiz-adv-x="1165" d="M158 0v1331h405q119 0 212 -29t148 -78.5t83 -110t28 -128.5q0 -190 -198 -291q116 -37 186 -116.5t70 -194.5q0 -175 -133 -279t-386 -104h-415zM440 133h127q111 0 174.5 64.5t63.5 195.5q0 223 -182 223h-183v-483zM440 739h168q56 0 103 54.5t47 175.5 q0 119 -55.5 174t-147.5 55h-115v-459z" />
<glyph unicode="C" horiz-adv-x="1179" d="M74 655q0 319 161 508t445 189q59 0 123 -11t113 -26t89.5 -30.5t62.5 -26.5l22 -11l-29 -149l-22 11t-55.5 24t-81.5 30t-92 24t-95 11q-172 0 -251 -120.5t-79 -411.5q0 -290 84 -412.5t260 -122.5q45 0 88 10.5t75.5 27.5t62 37t50 40.5t35.5 37.5t22 28l7 10l90 -99 q-5 -10 -15.5 -26.5t-51 -59t-89.5 -75t-133 -59t-180 -26.5q-301 0 -458.5 181t-157.5 497z" />
<glyph unicode="D" horiz-adv-x="1325" d="M158 0v1331h452q310 0 476.5 -170.5t166.5 -498.5q0 -323 -163.5 -492.5t-477.5 -169.5h-454zM440 145h174q118 0 188 49.5t104 162.5t34 305q0 287 -76 405.5t-254 118.5h-170v-1041z" />
<glyph unicode="E" d="M158 0v1331h798v-147h-516v-439h455v-143h-455v-455h545v-147h-827z" />
<glyph unicode="F" horiz-adv-x="999" d="M158 0v1331h809v-147h-527v-492h459v-143h-459v-549h-282z" />
<glyph unicode="G" horiz-adv-x="1280" d="M74 662q0 325 162 507.5t452 182.5q60 0 124 -11t113.5 -26t90 -30.5t62.5 -26.5l22 -11l-31 -149l-22 11t-55 24t-80.5 30t-91.5 24t-95 11q-187 0 -263.5 -123.5t-76.5 -415.5q0 -278 80 -403t229 -125q49 0 88.5 15t62 35.5t39.5 48t23.5 47t10.5 38.5v248h-207v139 h446v-702h-123l-71 117q-107 -140 -318 -140q-273 0 -422 180.5t-149 504.5z" />
<glyph unicode="H" horiz-adv-x="1341" d="M158 0v1331h282v-581h461v581h283v-1331h-283v606h-461v-606h-282z" />
<glyph unicode="I" horiz-adv-x="600" d="M158 0v1331h282v-1331h-282z" />
<glyph unicode="J" horiz-adv-x="786" d="M8 61l62 119q5 -6 15.5 -15.5t47 -25.5t78.5 -16q51 0 82.5 24.5t50 95.5t18.5 195v893h283v-893q0 -130 -23.5 -219.5t-72 -142.5t-115.5 -76t-162 -23q-58 0 -106.5 8.5t-76.5 21t-47.5 25t-26.5 20.5z" />
<glyph unicode="K" horiz-adv-x="1267" d="M158 0v1331h282v-616l121 88l391 528h197l-404 -520l498 -811h-358l-357 598l-88 -61v-537h-282z" />
<glyph unicode="L" horiz-adv-x="980" d="M158 0v1331h282v-1184h516v-147h-798z" />
<glyph unicode="M" horiz-adv-x="1753" d="M158 0l16 1331h342l373 -981h8l367 981h317l14 -1331h-276l-14 1008h-7l-370 -1008h-211l-371 1008h-6l-6 -1008h-176z" />
<glyph unicode="N" horiz-adv-x="1333" d="M158 0v1331h293l559 -903h4l-15 92v811h177v-1331h-222l-632 999h-5l17 -118v-881h-176z" />
<glyph unicode="O" horiz-adv-x="1357" d="M74 664q0 319 156.5 503.5t445.5 184.5q291 0 449.5 -185t158.5 -503t-158.5 -502.5t-449.5 -184.5q-289 0 -445.5 184t-156.5 503zM385 664q0 -286 67 -413.5t224 -127.5t226 128t69 413q0 282 -70 411t-225 129q-153 0 -222 -129t-69 -411z" />
<glyph unicode="P" horiz-adv-x="1091" d="M158 0v1331h407q227 0 353 -113t126 -337q0 -98 -28.5 -178.5t-75.5 -132.5t-109.5 -87.5t-127.5 -51t-132 -15.5h-131v-416h-282zM440 547h99q67 0 109 26.5t66.5 98.5t24.5 196q0 182 -49 256t-151 74h-99v-651z" />
<glyph unicode="Q" horiz-adv-x="1357" d="M74 664q0 319 156.5 503.5t445.5 184.5q292 0 450 -178.5t158 -495.5q0 -269 -114.5 -448.5t-325.5 -231.5q136 -274 276 -274q28 0 58 12l12 -119q-56 -20 -121 -20q-150 0 -287 112.5t-204 274.5q-243 30 -373.5 209.5t-130.5 470.5zM385 664q0 -280 67.5 -410.5 t223.5 -130.5t225.5 131t69.5 410q0 278 -70.5 409t-224.5 131q-152 0 -221.5 -131t-69.5 -409z" />
<glyph unicode="R" horiz-adv-x="1183" d="M158 0v1331h409q224 0 352 -110t128 -308q0 -129 -64 -223.5t-166 -148.5l307 -541h-325l-250 483h-109v-483h-282zM440 618h105q111 0 153.5 61t42.5 222q0 159 -46 228t-156 69h-99v-580z" />
<glyph unicode="S" horiz-adv-x="1007" d="M63 139l78 119q4 -5 12.5 -14t37.5 -31t62 -39t86 -31t110 -14q97 0 149.5 51t52.5 135q0 52 -29.5 94t-76.5 72t-103.5 59.5t-113 65.5t-103.5 80.5t-76.5 113t-29.5 154.5q0 182 120 290t312 108q82 0 164 -24t123 -48l41 -23l-33 -139q-15 10 -41 25t-99 40t-137 25 q-78 0 -125 -44t-47 -122q0 -46 18.5 -83.5t49.5 -65t71.5 -52.5t85 -48.5t89.5 -49.5t85.5 -60t71.5 -75t49.5 -99.5t18.5 -129.5q0 -124 -64 -217t-169 -139t-236 -46q-85 0 -158 16.5t-116.5 40.5t-74.5 48t-43 40z" />
<glyph unicode="T" horiz-adv-x="1056" d="M29 1184v147h999v-147h-356v-1184h-285v1184h-358z" />
<glyph unicode="U" horiz-adv-x="1257" d="M139 483v848h285v-784q0 -220 61 -317t189 -97q138 0 203 101t65 313v784h174v-848q0 -117 -26 -207.5t-82 -158.5t-151.5 -104t-227.5 -36q-242 0 -366 133.5t-124 372.5z" />
<glyph unicode="V" horiz-adv-x="1179" d="M18 1331h299l316 -1124h6l342 1124h178l-428 -1331h-313z" />
<glyph unicode="W" horiz-adv-x="1787" d="M18 1331h301l246 -1007h4l273 1007h227l281 -1001h6l231 1001h180l-348 -1331h-241l-279 983h-4l-277 -983h-245z" />
<glyph unicode="X" horiz-adv-x="1189" d="M16 0l414 647l-395 684h354l246 -477h6l285 477h200l-389 -614l437 -717h-353l-284 508h-7l-301 -508h-213z" />
<glyph unicode="Y" horiz-adv-x="1071" d="M-14 1331h317l293 -604h4l287 604h196l-399 -786v-545h-285v514z" />
<glyph unicode="Z" horiz-adv-x="1161" d="M86 0v119l641 1065h-604v147h946v-123l-641 -1061h639v-147h-981z" />
<glyph unicode="[" horiz-adv-x="790" d="M174 -182v1638h600v-141h-362v-1358h362v-139h-600z" />
<glyph unicode="\" horiz-adv-x="935" d="M-14 1536h184l750 -2048h-183z" />
<glyph unicode="]" horiz-adv-x="790" d="M14 -43h363v1358h-363v139h602v-1636h-602v139z" />
<glyph unicode="^" horiz-adv-x="731" d="M61 1087l304 343l305 -343l-80 -90l-225 217l-224 -217z" />
<glyph unicode="_" horiz-adv-x="1390" d="M63 -180h1264v-152h-1264v152z" />
<glyph unicode="`" horiz-adv-x="495" d="M-74 1440l217 71l174 -301l-127 -34z" />
<glyph unicode="a" horiz-adv-x="1050" d="M55 246q0 65 26 119.5t72 91t100.5 64t122 44.5t124.5 26.5t118 14.5v60q0 139 -38.5 191t-130.5 52q-43 0 -104 -18.5t-101 -37.5l-39 -19l-27 131q18 9 48.5 22.5t114.5 36.5t155 23q94 0 163.5 -17.5t123 -58t81 -111.5t27.5 -172v-465q0 -108 43 -108q11 0 28.5 3.5 t29.5 7.5l12 3l8 -106q-142 -46 -228 -46q-60 0 -92.5 30t-42.5 97h-10q-2 -5 -7.5 -13.5t-26.5 -30.5t-48.5 -39t-77 -30.5t-108.5 -13.5q-143 0 -229.5 72t-86.5 197zM340 281q0 -82 32.5 -124t88.5 -42q32 0 59.5 11.5t44.5 28t30 33t18 28.5l5 11v271 q-136 -14 -207 -64.5t-71 -152.5z" />
<glyph unicode="b" horiz-adv-x="1116" d="M123 0v1528l272 16v-588h8q2 4 7.5 10.5t26 24t45.5 30.5t70 23.5t97 10.5q183 0 295.5 -144.5t112.5 -378.5q0 -255 -113.5 -409t-314.5 -154q-52 0 -99 10.5t-77 25t-52.5 29.5t-32.5 26l-10 10h-4l-45 -70h-186zM395 201q2 -3 5.5 -8t17 -18.5t30 -23.5t46 -18 t63.5 -8q114 0 160.5 91t46.5 310q0 207 -44.5 288t-152.5 81q-34 0 -64 -11t-49 -26.5t-33 -31.5t-20 -27l-6 -11v-587z" />
<glyph unicode="c" horiz-adv-x="913" d="M59 506q0 250 131.5 395.5t362.5 145.5q63 0 137.5 -20t117.5 -40l44 -20l-27 -131q-16 8 -43 20t-91 32.5t-107 20.5q-46 0 -80 -9.5t-63.5 -36t-47.5 -70.5t-28.5 -114.5t-10.5 -168.5q0 -96 11.5 -167t30 -114t48 -69t60.5 -35.5t71 -9.5q45 0 86 14.5t67 35.5 t45 41.5t27 35.5l9 14l96 -61l-5 -12.5t-16.5 -30.5t-30 -43.5t-46.5 -45.5t-65 -43t-86 -30.5t-109 -12.5q-236 0 -362 135.5t-126 393.5z" />
<glyph unicode="d" horiz-adv-x="1116" d="M59 489q0 251 113.5 403t302.5 152q79 0 139 -19.5t80 -38.5l21 -19h6v561l272 16v-1544h-227l-31 92h-2q-2 -5 -6.5 -12.5t-23.5 -27.5t-44 -35t-71 -27.5t-101 -12.5q-193 0 -310.5 140t-117.5 372zM352 498q0 -143 22.5 -223t63.5 -109t111 -29q32 0 61.5 9.5t49 23.5 t34 28t20.5 24l7 9v590q-2 3 -6.5 7.5t-20.5 16t-33 20.5t-45 16.5t-57 7.5q-109 0 -158 -88.5t-49 -302.5z" />
<glyph unicode="e" horiz-adv-x="970" d="M59 494q0 266 123 408t332 142q192 0 296.5 -119.5t104.5 -342.5q0 -36 -4 -68.5t-8 -46.5l-4 -14h-551q3 -185 54 -261.5t169 -76.5q44 0 85 14t67.5 33.5t47 39.5t29.5 34l9 14l92 -72q-4 -8 -12 -21.5t-39.5 -48.5t-69 -61.5t-102.5 -48t-139 -21.5q-227 0 -353.5 126 t-126.5 391zM348 586h314v47q0 156 -33 218t-115 62q-57 0 -90 -28t-52 -99.5t-24 -199.5z" />
<glyph unicode="f" horiz-adv-x="708" d="M72 866v123l100 29v151q0 387 324 387q52 0 109 -17t89 -35l31 -17l-35 -117q-88 49 -145 49q-38 0 -58 -18.5t-31.5 -80t-11.5 -181.5v-115h256v-158h-256v-866h-272v866h-100z" />
<glyph unicode="g" horiz-adv-x="944" d="M20 -195q0 172 130 252q-23 51 -23 111q0 124 90 201q-158 100 -158 307q0 94 33.5 166t92.5 115.5t134 65t162 21.5q82 0 156 -22l276 -2v-121l-98 -6q57 -85 57 -217q0 -182 -107.5 -278.5t-289.5 -96.5q-69 0 -141 16q-39 -31 -39 -75q0 -84 209 -84q442 0 442 -324 q0 -181 -118.5 -276t-348.5 -95q-232 0 -345.5 92t-113.5 250zM211 -188q0 -100 66 -154.5t202 -54.5q240 0 240 168q0 82 -64.5 118.5t-193.5 36.5q-123 0 -199 33q-51 -55 -51 -147zM322 676q0 -133 37.5 -191.5t109.5 -58.5q70 0 104.5 59t34.5 195t-35 184.5t-106 48.5 q-72 0 -108.5 -49.5t-36.5 -187.5z" />
<glyph unicode="h" horiz-adv-x="1099" d="M123 0v1528l272 16v-590h8q4 4 10.5 10t31.5 21.5t53.5 27.5t75 21.5t96.5 9.5q160 0 237.5 -85t77.5 -265v-694h-270v672q0 118 -31 160t-109 42q-33 0 -63.5 -7.5t-50.5 -18t-36 -21.5t-23 -19l-7 -7v-801h-272z" />
<glyph unicode="i" horiz-adv-x="518" d="M104 1335q0 67 48 115q44 41 108 41q63 0 105 -39q45 -48 45 -117q0 -70 -45 -118q-45 -39 -105 -39q-61 0 -108 41q-48 48 -48 116zM123 0v1024h272v-1024h-272z" />
<glyph unicode="j" horiz-adv-x="573" d="M-102 -473l45 123q51 -39 108 -39q44 0 71 30t40.5 102.5t13.5 197.5v1083h273v-1083q0 -128 -27 -221.5t-77 -148t-113.5 -80.5t-143.5 -26q-59 0 -106.5 15.5t-65.5 31.5zM160 1335q0 68 47 115q44 41 108 41q63 0 105 -39q45 -48 45 -117q0 -70 -45 -118 q-45 -39 -105 -39q-61 0 -108 41q-47 47 -47 116z" />
<glyph unicode="k" horiz-adv-x="1005" d="M121 0v1528l272 16v-954l142 96l217 338h168l-267 -381l332 -643h-311l-230 479l-51 -33v-446h-272z" />
<glyph unicode="l" horiz-adv-x="520" d="M123 0v1528l272 16v-1544h-272z" />
<glyph unicode="m" horiz-adv-x="1556" d="M123 0v1024h219l35 -92h6q4 5 11.5 12.5t34 26.5t55.5 34t75 27t94 12q168 0 226 -108l5 5q6 5 12 9.5t16.5 12.5t21.5 15t27 15t32 15t36.5 14t42 11.5t46.5 7.5t51 3q146 0 209.5 -77t63.5 -252v-715h-273v694q0 76 -13 117t-35 53.5t-60 12.5q-51 0 -89 -25.5 t-57 -52.5q5 -63 5 -80v-719h-273v694q0 109 -25.5 146t-80.5 37q-52 0 -92.5 -27t-53.5 -47v-803h-272z" />
<glyph unicode="n" horiz-adv-x="1101" d="M123 0v1024h219l35 -84h8q3 4 9.5 11t31.5 25t55 32t82 25t111 11q158 0 236.5 -85t78.5 -265v-694h-272v639q0 137 -30 186t-107 49q-53 0 -99 -18t-66 -36l-20 -19v-801h-272z" />
<glyph unicode="o" horiz-adv-x="1075" d="M59 512q0 256 124 395.5t354 139.5q231 0 355 -139.5t124 -395.5q0 -253 -128 -394t-351 -141q-230 0 -354 139.5t-124 395.5zM352 514q0 -222 41.5 -311.5t143.5 -89.5q101 0 142.5 89t41.5 310t-41 309t-143 88t-143.5 -88t-41.5 -307z" />
<glyph unicode="p" horiz-adv-x="1116" d="M123 -520v1544h219l37 -92h6q4 5 10.5 12.5t32 27.5t55 35t78.5 27.5t103 12.5q182 0 286.5 -140t104.5 -375q0 -252 -109 -403.5t-297 -151.5q-50 0 -94.5 8t-71 19.5t-46.5 23t-28 19.5l-8 8h-6v-567zM395 201q2 -3 6 -7.5t17.5 -16t30 -20.5t43 -16.5t55.5 -7.5 q77 0 123 36t69 122t23 235q0 107 -12 178t-38 111t-60.5 56t-84.5 16q-49 0 -91.5 -21.5t-59 -39.5t-21.5 -27v-598z" />
<glyph unicode="q" horiz-adv-x="1116" d="M61 489q0 250 118.5 404t309.5 154q76 0 140 -21.5t90 -43.5l26 -21h3l61 63h182v-1536l-272 -8v594h-8q-2 -4 -7 -10.5t-25.5 -23t-45.5 -29.5t-69.5 -23.5t-96.5 -10.5q-183 0 -294.5 139.5t-111.5 372.5zM352 498q0 -112 14 -185.5t43 -111t63.5 -51t86.5 -13.5 q32 0 59.5 8.5t44.5 19t30.5 25t18 21.5t7.5 12v602q-7 10 -20 21.5t-50.5 28t-81.5 16.5q-53 0 -91 -18t-67 -61t-43 -121t-14 -193z" />
<glyph unicode="r" horiz-adv-x="727" d="M123 0v1024h192l45 -172h9q1 8 4 21t16.5 46.5t32.5 59.5t56.5 47t84.5 21q29 0 69.5 -7.5t66.5 -14.5l26 -7l-25 -191q-104 29 -170 29q-29 0 -53.5 -12.5t-39 -31t-24.5 -36.5t-14 -30l-4 -13v-733h-272z" />
<glyph unicode="s" horiz-adv-x="854" d="M49 131l76 107q4 -5 10.5 -13.5t29.5 -30t48 -38t63 -30t76 -13.5q75 0 116.5 39.5t41.5 101.5q0 42 -23 74t-60 53.5t-81.5 41t-89 44.5t-81.5 57t-60 84.5t-23 120.5q0 102 52 176t132.5 108t178.5 34q64 0 138 -18t115 -36l42 -18l-37 -137q-15 8 -40 20.5t-86.5 33.5 t-105.5 21q-64 0 -98.5 -30t-34.5 -82q0 -42 24.5 -75t64 -56t87.5 -45t95.5 -49t87 -60t64 -85.5t24.5 -119.5q0 -150 -99.5 -242t-285.5 -92q-75 0 -140 16t-103.5 38.5t-67 45t-39.5 38.5z" />
<glyph unicode="t" horiz-adv-x="722" d="M61 866v123l101 29l131 346h139v-340h225v-158h-225v-506q0 -97 9.5 -147.5t29 -69t57.5 -18.5q29 0 56 4.5t39 8.5l12 5l16 -116q-6 -6 -18.5 -14t-66 -22t-122.5 -14q-146 0 -215 72t-69 242v575h-99z" />
<glyph unicode="u" horiz-adv-x="1101" d="M115 328v696h272v-639q0 -136 32.5 -187t106.5 -51q48 0 93 19.5t65 39.5l21 19v799h272v-1024h-219l-39 90h-4q-3 -5 -9.5 -12.5t-31 -27t-54 -34.5t-80.5 -27t-110 -12q-158 0 -236.5 85.5t-78.5 265.5z" />
<glyph unicode="v" horiz-adv-x="966" d="M10 1024h330l201 -729h8l229 729h178l-362 -1024h-225z" />
<glyph unicode="w" horiz-adv-x="1433" d="M12 1024h310l149 -682h6l195 682h186l215 -682h6l166 682h176l-301 -1024h-217l-184 668v2h-6l-191 -670h-217z" />
<glyph unicode="x" horiz-adv-x="968" d="M18 0l316 496l-299 528h325l170 -362l193 362h186l-284 -465l325 -559h-325l-193 383l-223 -383h-191z" />
<glyph unicode="y" horiz-adv-x="985" d="M14 1024h330l250 -729l211 729h170l-354 -1047q-37 -102 -67.5 -173.5t-69.5 -140t-78.5 -109t-90.5 -65t-110 -24.5q-47 0 -87 7.5t-56 15.5l-17 8l23 160q53 -23 106 -23q49 0 86 18.5t70 62t59.5 99t61.5 146.5z" />
<glyph unicode="z" horiz-adv-x="888" d="M53 0v123l469 762h-430l-6 139h748v-123l-465 -762h446l4 -139h-766z" />
<glyph unicode="{" horiz-adv-x="831" d="M195 522v150q57 0 118.5 34.5t61.5 92.5q0 52 -30 198.5t-30 219.5q0 79 21 134.5t71.5 97.5t139 62.5t219.5 20.5v-133q-114 0 -165.5 -44t-51.5 -132q0 -63 29.5 -221.5t29.5 -223.5q0 -124 -141 -180q141 -59 141 -182q0 -64 -29.5 -222.5t-29.5 -220.5 q0 -88 51.5 -132t165.5 -44v-135q-130 0 -219 21t-139.5 63.5t-71.5 98.5t-21 135q0 73 30 218.5t30 198.5q0 40 -33 70t-73 42.5t-74 12.5z" />
<glyph unicode="|" horiz-adv-x="700" d="M272 -512v2048h158v-2048h-158z" />
<glyph unicode="}" horiz-adv-x="831" d="M115 -203q115 0 166 43.5t51 132.5q0 62 -30 220.5t-30 222.5q0 122 142 182q-142 56 -142 180q0 65 30 223.5t30 221.5q0 89 -51 132.5t-166 43.5v133q131 0 220 -20.5t139.5 -62.5t71.5 -97.5t21 -134.5q0 -73 -30.5 -219.5t-30.5 -198.5q0 -40 33.5 -70.5t74 -43.5 t74.5 -13v-150q-34 0 -74.5 -12.5t-74 -42.5t-33.5 -70q0 -53 30.5 -198.5t30.5 -218.5q0 -79 -21 -135t-71.5 -98.5t-140 -63.5t-219.5 -21v135z" />
<glyph unicode="~" horiz-adv-x="1224" d="M51 649q1 6 3 16.5t12.5 40.5t24.5 57.5t40 61.5t58.5 58t81.5 40.5t106 16.5q78 0 149 -24.5t124 -60t101.5 -71t102.5 -60t107 -24.5q32 0 57 10t38.5 24t23 28.5t12.5 24.5l2 10l84 -54q-1 -6 -3 -16.5t-12 -41t-23.5 -58.5t-38 -62t-55 -58.5t-76 -41t-98.5 -16.5 q-71 0 -137 25t-116.5 60.5t-99.5 70.5t-105.5 60t-114.5 25q-34 0 -63.5 -10.5t-46.5 -25.5t-29 -30t-16 -26l-5 -10z" />
<glyph unicode="&#xa1;" horiz-adv-x="681" d="M168 891q0 71 49 123q46 43 115 43q66 0 112 -43q50 -53 50 -123q0 -71 -50 -121q-46 -43 -112 -43q-69 0 -115 43q-49 49 -49 121zM178 -387l88 938h137l89 -938v-125h-314v125z" />
<glyph unicode="&#xa2;" horiz-adv-x="913" d="M59 649q0 212 97 351.5t270 177.5l23 256h133l26 -248q56 -7 117 -26t94 -34l33 -16l-27 -131q-16 8 -43 20.5t-91 33t-107 20.5q-46 0 -80 -10t-63.5 -36t-47.5 -70.5t-28.5 -115t-10.5 -168.5q0 -96 11.5 -167t30 -114t48 -69t60.5 -35.5t71 -9.5q45 0 86 14.5t67 35 t45 41.5t27 35l9 15l96 -61q-3 -8 -8.5 -20.5t-29.5 -46t-54.5 -61t-85 -53.5t-119.5 -34l-18 -225h-135l-27 231q-180 32 -274.5 164t-94.5 356z" />
<glyph unicode="&#xa3;" horiz-adv-x="1087" d="M82 0v250h84q96 64 96 227q0 45 -6 94l-174 15v131h156q-21 164 -21 241q0 194 107.5 294t302.5 100q64 0 138 -21t115 -42l42 -21l-41 -133q-13 8 -35 19.5t-74 30.5t-86 19q-60 0 -93.5 -19.5t-52 -77t-18.5 -165.5q0 -132 -8 -225h420v-150h-436q-36 -207 -119 -317 h663v-250h-960z" />
<glyph unicode="&#xa4;" horiz-adv-x="1118" d="M84 1032l102 137l166 -215q89 80 209 80q116 0 201 -73l170 206l100 -135l-192 -160q61 -99 61 -227q0 -126 -59 -223l190 -166l-98 -137l-168 213q-91 -78 -205 -78q-115 0 -205 74l-170 -207l-100 137l195 162q-58 99 -58 225q0 121 56 219zM373 647q0 -111 51 -175 t135 -64q86 0 139.5 63t53.5 174q0 112 -53 175t-140 63q-85 0 -135.5 -62.5t-50.5 -173.5z" />
<glyph unicode="&#xa5;" horiz-adv-x="1208" d="M53 1331h318l293 -604h4l286 604h197l-326 -641h168v-129h-233l-8 -16v-119h241v-131h-241v-295h-285v295h-260v131h260v88l-25 47h-235v129h170z" />
<glyph unicode="&#xa6;" horiz-adv-x="700" d="M272 307h158v-819h-158v819zM272 717v819h158v-819h-158z" />
<glyph unicode="&#xa7;" horiz-adv-x="1034" d="M123 645q0 169 123 266q-37 55 -37 138q0 142 96.5 222.5t261.5 80.5q44 0 92 -10t84.5 -24t66.5 -28.5t46 -24.5l16 -10l-28 -122q-16 9 -42 22.5t-89.5 36t-106.5 22.5q-74 0 -108.5 -35.5t-34.5 -88.5q0 -45 28 -78.5t72 -56t98 -44t108 -48.5t98 -62.5t72 -94 t28 -135.5q0 -157 -138 -272q35 -59 35 -137q0 -135 -103 -218t-284 -83q-64 0 -120 12.5t-91.5 29.5t-61.5 34.5t-37 30.5l-11 12l53 118q3 -4 9.5 -11t29 -24t47.5 -30t65 -24t82 -11q85 0 126.5 35.5t41.5 95.5q0 41 -27 71.5t-70 51.5t-95 41t-103.5 48t-94.5 65t-70 98 t-27 141zM295 709q0 -51 30.5 -89.5t83 -65.5t108.5 -49t123 -52.5t110 -63.5q45 52 45 127q0 44 -31 78.5t-84.5 60.5t-110.5 48t-125.5 53.5t-113.5 64.5q-35 -47 -35 -112z" />
<glyph unicode="&#xa8;" horiz-adv-x="864" d="M2 1335q0 63 41 107q41 35 94 35t94 -35q41 -47 41 -107q0 -62 -41 -106q-40 -37 -94 -37t-94 37q-41 41 -41 106zM383 1335q0 63 41 107q38 35 94 35q53 0 94 -35q41 -47 41 -107q0 -62 -41 -106q-40 -37 -94 -37q-57 0 -94 37q-41 41 -41 106z" />
<glyph unicode="&#xa9;" horiz-adv-x="1492" d="M121 662q0 324 163 514t459 190q197 0 340 -88t216 -246t73 -370q0 -323 -164.5 -512t-464.5 -189t-461 188t-161 513zM248 659q0 -277 130 -429t363 -152q234 0 369 152.5t135 428.5t-135.5 434t-368.5 158q-231 0 -362 -157.5t-131 -434.5zM444 653q0 167 95.5 265 t238.5 98q54 0 104.5 -17.5t74.5 -34.5l24 -18l-37 -96q-8 6 -21.5 15.5t-50.5 25.5t-69 16q-77 0 -117.5 -57t-40.5 -197q0 -135 41 -192.5t119 -57.5q49 0 88 26.5t53 52.5l15 26l59 -59l-5.5 -16.5t-22 -37.5t-44 -47.5t-74.5 -37.5t-110 -17q-137 0 -228.5 96t-91.5 264 z" />
<glyph unicode="&#xaa;" horiz-adv-x="845" d="M57 846q0 60 30.5 108.5t76 78t107.5 50.5t116 30t111 13v11q0 85 -30 122t-99 37q-32 0 -64 -9t-54.5 -21.5t-40.5 -25t-27 -21.5l-9 -9l-51 72q3 5 9 13t30.5 28t55 35.5t83.5 28t115 12.5q159 0 241 -67t82 -214v-463h-186l-49 82q-2 -8 -6.5 -18t-19 -27t-35 -30 t-58 -23t-84.5 -10q-118 0 -181 58t-63 159zM295 868q0 -116 100 -116q30 0 51.5 9t32 23t14.5 23.5t5 17.5v213q-105 -12 -154 -51t-49 -119z" />
<glyph unicode="&#xab;" horiz-adv-x="1097" d="M162 512l364 381l70 -76l-182 -307l182 -309l-72 -80zM541 512l364 381l70 -76l-182 -307l182 -309l-72 -80z" />
<glyph unicode="&#xac;" horiz-adv-x="1013" d="M102 571v150h807v-485h-139v335h-668z" />
<glyph unicode="&#xad;" horiz-adv-x="733" d="M88 487v152h557v-152h-557z" />
<glyph unicode="&#xae;" horiz-adv-x="1370" d="M94 881q0 304 159 488.5t429 184.5q273 0 434.5 -184.5t161.5 -488.5q0 -202 -68.5 -353.5t-204 -237t-323.5 -85.5q-187 0 -321 86t-200.5 237t-66.5 353zM219 879q0 -258 121 -407.5t340 -149.5q220 0 345.5 150t125.5 407q0 259 -126 412t-345 153q-217 0 -339 -155.5 t-122 -409.5zM481 561v635h201q256 0 256 -197q0 -124 -115 -180l115 -260h-160l-98 234h-55v-232h-144zM625 872h61q90 0 90 125q0 61 -22 88t-70 27h-59v-240z" />
<glyph unicode="&#xaf;" horiz-adv-x="876" d="M221 1278v119h438v-119h-438z" />
<glyph unicode="&#xb0;" horiz-adv-x="862" d="M74 1155q0 186 95 299t261 113q163 0 260.5 -114t97.5 -298q0 -189 -94 -303.5t-264 -114.5q-173 0 -264.5 113.5t-91.5 304.5zM299 1159q0 -154 30.5 -223.5t98.5 -69.5q70 0 103.5 70.5t33.5 222.5q0 151 -32.5 216t-102.5 65t-100.5 -64.5t-30.5 -216.5z" />
<glyph unicode="&#xb1;" d="M63 264v152h949v-152h-949zM137 999v152h334v377h145v-377h328v-152h-328v-378h-145v378h-334z" />
<glyph unicode="&#xb2;" horiz-adv-x="847" d="M84 471v195q58 22 125 73.5t130 122t104.5 164.5t41.5 186q0 119 -34.5 165t-112.5 46q-34 0 -83.5 -20.5t-82.5 -40.5l-33 -21l-28 119q5 4 15.5 10.5t42 23t64.5 29t80.5 23t92.5 10.5q170 0 260 -91.5t90 -233.5q0 -265 -377 -526h385v-234h-680z" />
<glyph unicode="&#xb3;" horiz-adv-x="845" d="M74 569l59 111l10.5 -10.5t29 -23.5t46.5 -30t60.5 -23.5t72.5 -10.5q77 0 117.5 46.5t40.5 151.5q0 102 -21.5 144.5t-66.5 42.5q-31 0 -62 -31l-18 -23l-76 88l246 299h-365l15 236h565v-158l-246 -295q117 -3 200 -86t83 -223q0 -83 -31.5 -147t-85.5 -102t-119 -57 t-137 -19q-62 0 -117.5 12.5t-90 30t-61 35t-37.5 29.5z" />
<glyph unicode="&#xb4;" horiz-adv-x="495" d="M125 1184l143 311l221 -63l-247 -267z" />
<glyph unicode="&#xb5;" horiz-adv-x="1110" d="M125 -512v1536h272v-639q0 -136 33 -187t107 -51q48 0 92.5 19.5t64.5 39.5l21 19v799h272v-1024h-219l-39 90h-4q-3 -5 -9.5 -12.5t-31 -27t-54 -34.5t-80.5 -27t-110 -12q-16 0 -61 5q25 -344 27 -494h-281z" />
<glyph unicode="&#xb6;" horiz-adv-x="1310" d="M74 909q0 211 120.5 316.5t395.5 105.5h647v-180h-129v-1151h-207v1151h-164v-1151h-200v475q-463 0 -463 434z" />
<glyph unicode="&#xb7;" horiz-adv-x="608" d="M139 745q0 71 49 123q46 43 115 43q67 0 113 -43q49 -52 49 -123t-49 -120q-46 -43 -113 -43q-69 0 -115 43q-49 49 -49 120z" />
<glyph unicode="&#xb8;" horiz-adv-x="509" d="M51 -420l53 60q5 -7 13.5 -17t38 -26.5t61.5 -16.5q102 0 102 117q0 27 -12.5 46.5t-30.5 29t-36 14.5t-30.5 7.5t-12.5 4.5l24 199h90l-12 -117q0 -3 18.5 -8.5t45.5 -17.5t54 -30.5t45.5 -53t18.5 -78.5q0 -94 -59.5 -150.5t-173.5 -56.5q-43 0 -79 9.5t-57 23.5 t-35.5 28t-20.5 23z" />
<glyph unicode="&#xb9;" horiz-adv-x="845" d="M125 1370l258 166h199v-1065h-246v866l-154 -106z" />
<glyph unicode="&#xba;" horiz-adv-x="899" d="M59 1014q0 182 99 283.5t291 101.5q193 0 291 -101t98 -284q0 -181 -101.5 -283t-287.5 -102q-192 0 -291 101t-99 284zM317 1016q0 -149 31 -217t101 -68q71 0 101 66.5t30 216.5q0 148 -30 213t-101 65q-70 0 -101 -65.5t-31 -210.5z" />
<glyph unicode="&#xbb;" horiz-adv-x="1097" d="M121 195l184 307l-182 311l74 80l358 -391l-360 -381zM500 195l184 307l-182 311l73 80l359 -391l-361 -381z" />
<glyph unicode="&#xbc;" horiz-adv-x="1648" d="M125 1370l258 166h199v-1065h-246v866l-154 -106zM451 -18l692 1239l110 -62l-690 -1241zM834 -139q60 120 112 325.5t80 395.5l240 -29q-34 -174 -109.5 -351.5t-163.5 -322.5h232v80l69 432h187v-512h86v-106l-86 -25v-260h-256v258h-379z" />
<glyph unicode="&#xbd;" horiz-adv-x="1726" d="M125 1370l258 166h199v-1065h-246v866l-154 -106zM451 -18l692 1239l110 -62l-690 -1241zM975 -319q58 22 125 74t130 123t104.5 165t41.5 186q0 119 -35 165t-114 46q-33 0 -82.5 -20.5t-82.5 -41.5l-34 -20l-29 117q6 4 16 10.5t42 23t65.5 29t81 23t92.5 10.5 q170 0 259.5 -91t89.5 -234q0 -78 -33 -156t-91 -145.5t-118.5 -120.5t-132.5 -103h383v-233h-678v193z" />
<glyph unicode="&#xbe;" horiz-adv-x="1734" d="M80 569l59 111l10.5 -10.5t29 -23.5t46.5 -30t60.5 -23.5t72.5 -10.5q77 0 117.5 46.5t40.5 151.5q0 102 -21.5 144.5t-66.5 42.5q-30 0 -61 -31l-19 -23l-76 88l246 299h-364l14 236h565v-158l-246 -295q117 -3 200 -86t83 -223q0 -83 -31.5 -147t-85.5 -102t-119 -57 t-137 -19q-62 0 -117.5 12.5t-90 30t-61 35t-37.5 29.5zM537 -18l692 1239l110 -62l-690 -1241zM920 -139q60 120 112 325.5t80 395.5l240 -29q-34 -174 -109.5 -351.5t-163.5 -322.5h232v80l69 432h187v-512h86v-106l-86 -25v-260h-256v258h-379z" />
<glyph unicode="&#xbf;" horiz-adv-x="911" d="M47 -172q0 84 25 150t65 107.5t88.5 76t97.5 65t89 63.5t65 82t25 111q0 16 -4 52l112 8q21 -82 21 -137q0 -50 -15 -90t-39.5 -66.5t-53.5 -51.5t-58.5 -53.5t-54 -63.5t-39.5 -89.5t-15 -124.5q0 -141 40 -201.5t141 -60.5q46 0 93.5 13.5t71.5 27.5l25 14l57 -125 q-4 -3 -10.5 -7.5t-32 -16.5t-54.5 -21.5t-77.5 -17t-101.5 -7.5q-99 0 -178.5 21t-131 56.5t-86.5 83t-50 98t-15 104.5zM383 891q0 71 49 123q46 43 115 43q66 0 112 -43q50 -53 50 -123q0 -71 -50 -121q-46 -43 -112 -43q-69 0 -115 43q-49 49 -49 121z" />
<glyph unicode="&#xc0;" horiz-adv-x="1245" d="M39 0l442 1331h314l413 -1331h-299l-114 373h-463l-121 -373h-172zM342 1716l217 72l174 -301l-127 -35zM373 502h383l-183 626h-4z" />
<glyph unicode="&#xc1;" horiz-adv-x="1245" d="M39 0l442 1331h314l413 -1331h-299l-114 373h-463l-121 -373h-172zM373 502h383l-183 626h-4zM537 1460l143 312l221 -64l-248 -266z" />
<glyph unicode="&#xc2;" horiz-adv-x="1245" d="M39 0l442 1331h314l413 -1331h-299l-114 373h-463l-121 -373h-172zM352 1569l201 250h143l199 -250l-57 -92l-213 174l-213 -174zM373 502h383l-183 626h-4z" />
<glyph unicode="&#xc3;" horiz-adv-x="1245" d="M39 0l442 1331h314l413 -1331h-299l-114 373h-463l-121 -373h-172zM264 1567q3 7 9 19.5t29 44.5t49.5 56t71 44t93.5 20q64 0 119.5 -24t102.5 -48t89 -24q33 0 58.5 16.5t34.5 32.5l10 16l74 -71q-2 -7 -7 -17.5t-23.5 -38.5t-42.5 -49.5t-66 -39t-91 -17.5 q-56 0 -111 24.5t-107 49t-99 24.5q-33 0 -62.5 -23t-42.5 -46l-14 -23zM373 502h383l-183 626h-4z" />
<glyph unicode="&#xc4;" horiz-adv-x="1245" d="M39 0l442 1331h314l413 -1331h-299l-114 373h-463l-121 -373h-172zM299 1612q0 62 41 106q41 35 94 35t94 -35q41 -47 41 -106q0 -63 -41 -107q-40 -37 -94 -37t-94 37q-41 41 -41 107zM373 502h383l-183 626h-4zM680 1612q0 62 41 106q38 35 94 35q53 0 94 -35 q41 -47 41 -106q0 -63 -41 -107q-40 -37 -94 -37q-57 0 -94 37q-41 41 -41 107z" />
<glyph unicode="&#xc5;" horiz-adv-x="1245" d="M39 0l442 1331h314l413 -1331h-299l-114 373h-463l-121 -373h-172zM373 502h383l-183 626h-4zM410 1620q0 102 60 160.5t155 58.5q92 0 153.5 -59t61.5 -160q0 -102 -59.5 -161.5t-155.5 -59.5q-99 0 -157 59t-58 162zM504 1622q0 -67 32.5 -101t88.5 -34t88 34t32 101 q0 64 -33.5 97.5t-86.5 33.5t-87 -33.5t-34 -97.5z" />
<glyph unicode="&#xc6;" horiz-adv-x="1683" d="M-29 0l742 1331h872v-147h-514v-439h455v-143h-455v-455h543v-147h-826v385h-430l-208 -385h-179zM428 516h360v668h-14z" />
<glyph unicode="&#xc7;" horiz-adv-x="1179" d="M74 655q0 319 161 508t445 189q59 0 123 -11t113 -26t89.5 -30.5t62.5 -26.5l22 -11l-29 -149l-22 11t-55.5 24t-81.5 30t-92 24t-95 11q-172 0 -251 -120.5t-79 -411.5q0 -290 84 -412.5t260 -122.5q45 0 88 10.5t75.5 27.5t62 37t50 40.5t35.5 37.5t22 28l7 10l90 -99 q-5 -10 -15.5 -26.5t-51 -58.5t-89 -74.5t-132.5 -59t-179 -27.5l-10 -96q0 -3 18.5 -8.5t45.5 -17.5t54 -30.5t45.5 -53t18.5 -78.5q0 -94 -59.5 -150.5t-173.5 -56.5q-43 0 -79 9.5t-57 23.5t-35.5 28t-19.5 23l-6 10l53 60q5 -7 13.5 -17t38 -26.5t61.5 -16.5 q102 0 102 117q0 27 -12.5 46.5t-30.5 29t-36 14.5t-30.5 7.5t-12.5 4.5l22 183q-259 26 -393.5 203.5t-134.5 469.5z" />
<glyph unicode="&#xc8;" d="M158 0v1331h798v-147h-516v-439h455v-143h-455v-455h545v-147h-827zM307 1716l217 72l174 -301l-127 -35z" />
<glyph unicode="&#xc9;" d="M158 0v1331h798v-147h-516v-439h455v-143h-455v-455h545v-147h-827zM500 1460l143 312l221 -64l-248 -266z" />
<glyph unicode="&#xca;" d="M158 0v1331h798v-147h-516v-439h455v-143h-455v-455h545v-147h-827zM319 1569l201 250h144l198 -250l-57 -92l-213 174l-213 -174z" />
<glyph unicode="&#xcb;" d="M158 0v1331h798v-147h-516v-439h455v-143h-455v-455h545v-147h-827zM233 1612q0 62 41 106q41 35 95 35q53 0 94 -35q41 -47 41 -106q0 -63 -41 -107q-40 -37 -94 -37q-55 0 -95 37q-41 41 -41 107zM614 1612q0 62 41 106q38 35 95 35q53 0 94 -35q41 -47 41 -106 q0 -63 -41 -107q-40 -37 -94 -37q-58 0 -95 37q-41 41 -41 107z" />
<glyph unicode="&#xcc;" horiz-adv-x="600" d="M8 1716l217 72l174 -301l-127 -35zM158 0v1331h282v-1331h-282z" />
<glyph unicode="&#xcd;" horiz-adv-x="600" d="M158 0v1331h282v-1331h-282zM205 1460l143 312l221 -64l-247 -266z" />
<glyph unicode="&#xce;" horiz-adv-x="600" d="M25 1569l200 250h144l198 -250l-57 -92l-213 174l-213 -174zM158 0v1331h282v-1331h-282z" />
<glyph unicode="&#xcf;" horiz-adv-x="600" d="M-33 1612q0 62 41 106q41 35 94 35q54 0 95 -35q41 -47 41 -106q0 -63 -41 -107q-40 -37 -95 -37q-54 0 -94 37q-41 41 -41 107zM158 0v1331h282v-1331h-282zM348 1612q0 62 41 106q38 35 94 35q54 0 95 -35q40 -46 40 -106q0 -64 -40 -107q-40 -37 -95 -37q-57 0 -94 37 q-41 41 -41 107z" />
<glyph unicode="&#xd0;" horiz-adv-x="1347" d="M43 592v135h115v604h452q310 0 476.5 -170.5t166.5 -498.5q0 -323 -163.5 -492.5t-477.5 -169.5h-454v592h-115zM440 145h174q118 0 188 49.5t104 162.5t34 305q0 287 -76 405.5t-254 118.5h-170v-459h291v-135h-291v-447z" />
<glyph unicode="&#xd1;" horiz-adv-x="1333" d="M158 0v1331h293l559 -903h4l-15 92v811h177v-1331h-222l-632 999h-5l17 -118v-881h-176zM334 1567q3 7 9 19.5t29 44.5t49.5 56t71 44t93.5 20q64 0 119.5 -24t102.5 -48t89 -24q33 0 58.5 16.5t34.5 32.5l9 16l74 -71q-2 -7 -6.5 -17.5t-23.5 -38.5t-42.5 -49.5 t-65.5 -39t-91 -17.5q-45 0 -90 15.5t-76 33.5t-72.5 33.5t-79.5 15.5q-33 0 -62.5 -23t-42.5 -46l-13 -23z" />
<glyph unicode="&#xd2;" horiz-adv-x="1357" d="M74 664q0 319 156.5 503.5t445.5 184.5q291 0 449.5 -185t158.5 -503t-158.5 -502.5t-449.5 -184.5q-289 0 -445.5 184t-156.5 503zM385 664q0 -286 67 -413.5t224 -127.5t226 128t69 413q0 282 -70 411t-225 129q-153 0 -222 -129t-69 -411zM387 1716l217 72l174 -301 l-127 -35z" />
<glyph unicode="&#xd3;" horiz-adv-x="1357" d="M74 664q0 319 156.5 503.5t445.5 184.5q291 0 449.5 -185t158.5 -503t-158.5 -502.5t-449.5 -184.5q-289 0 -445.5 184t-156.5 503zM385 664q0 -286 67 -413.5t224 -127.5t226 128t69 413q0 282 -70 411t-225 129q-153 0 -222 -129t-69 -411zM582 1460l143 312l221 -64 l-248 -266z" />
<glyph unicode="&#xd4;" horiz-adv-x="1357" d="M74 664q0 319 156.5 503.5t445.5 184.5q291 0 449.5 -185t158.5 -503t-158.5 -502.5t-449.5 -184.5q-289 0 -445.5 184t-156.5 503zM385 664q0 -286 67 -413.5t224 -127.5t226 128t69 413q0 282 -70 411t-225 129q-153 0 -222 -129t-69 -411zM403 1569l201 250h144 l198 -250l-57 -92l-213 174l-213 -174z" />
<glyph unicode="&#xd5;" horiz-adv-x="1357" d="M74 664q0 319 156.5 503.5t445.5 184.5q291 0 449.5 -185t158.5 -503t-158.5 -502.5t-449.5 -184.5q-289 0 -445.5 184t-156.5 503zM311 1567q3 7 9 19.5t29 44.5t49.5 56t71 44t93.5 20q64 0 119.5 -24t102.5 -48t89 -24q33 0 58.5 16.5t35.5 32.5l9 16l74 -71 q-2 -7 -7 -17.5t-23.5 -38.5t-42.5 -49.5t-66 -39t-91 -17.5q-56 0 -111 24.5t-107 49t-99 24.5q-33 0 -62.5 -23t-43.5 -46l-13 -23zM385 664q0 -286 67 -413.5t224 -127.5t226 128t69 413q0 282 -70 411t-225 129q-153 0 -222 -129t-69 -411z" />
<glyph unicode="&#xd6;" horiz-adv-x="1357" d="M74 664q0 319 156.5 503.5t445.5 184.5q291 0 449.5 -185t158.5 -503t-158.5 -502.5t-449.5 -184.5q-289 0 -445.5 184t-156.5 503zM344 1612q0 62 41 106q41 35 94 35t94 -35q41 -47 41 -106q0 -63 -41 -107q-40 -37 -94 -37t-94 37q-41 41 -41 107zM385 664 q0 -286 67 -413.5t224 -127.5t226 128t69 413q0 282 -70 411t-225 129q-153 0 -222 -129t-69 -411zM725 1612q0 62 41 106q38 35 94 35q53 0 94 -35q41 -47 41 -106q0 -63 -41 -107q-40 -37 -94 -37q-57 0 -94 37q-41 41 -41 107z" />
<glyph unicode="&#xd7;" horiz-adv-x="866" d="M94 391l238 262l-238 265l96 118l244 -270l244 270l96 -118l-237 -265l237 -262l-98 -119l-242 267l-239 -267z" />
<glyph unicode="&#xd8;" horiz-adv-x="1357" d="M74 664q0 319 156.5 503.5t445.5 184.5q135 0 250 -45l75 180l86 -23l-83 -196q136 -83 208 -238t72 -366q0 -318 -158.5 -502.5t-449.5 -184.5q-109 0 -207 29l-96 -225l-84 22l98 236q-153 76 -233 237t-80 388zM385 664q0 -315 82 -439l387 914q-68 65 -178 65 q-153 0 -222 -129t-69 -411zM532 158q55 -35 144 -35q157 0 226 128t69 413q0 258 -60 387z" />
<glyph unicode="&#xd9;" horiz-adv-x="1257" d="M139 483v848h285v-784q0 -220 61 -317t189 -97q138 0 203 101t65 313v784h174v-848q0 -117 -26 -207.5t-82 -158.5t-151.5 -104t-227.5 -36q-242 0 -366 133.5t-124 372.5zM424 1716l217 72l174 -301l-127 -35z" />
<glyph unicode="&#xda;" horiz-adv-x="1257" d="M139 483v848h285v-784q0 -220 61 -317t189 -97q138 0 203 101t65 313v784h174v-848q0 -117 -26 -207.5t-82 -158.5t-151.5 -104t-227.5 -36q-242 0 -366 133.5t-124 372.5zM557 1460l143 312l222 -64l-248 -266z" />
<glyph unicode="&#xdb;" horiz-adv-x="1257" d="M139 483v848h285v-784q0 -220 61 -317t189 -97q138 0 203 101t65 313v784h174v-848q0 -117 -26 -207.5t-82 -158.5t-151.5 -104t-227.5 -36q-242 0 -366 133.5t-124 372.5zM406 1569l200 250h144l198 -250l-57 -92l-213 174l-213 -174z" />
<glyph unicode="&#xdc;" horiz-adv-x="1257" d="M139 483v848h285v-784q0 -220 61 -317t189 -97q138 0 203 101t65 313v784h174v-848q0 -117 -26 -207.5t-82 -158.5t-151.5 -104t-227.5 -36q-242 0 -366 133.5t-124 372.5zM346 1612q0 62 41 106q41 35 94 35t94 -35q41 -47 41 -106q0 -63 -41 -107q-40 -37 -94 -37 t-94 37q-41 41 -41 107zM727 1612q0 62 41 106q38 35 94 35q53 0 94 -35q41 -47 41 -106q0 -63 -41 -107q-40 -37 -94 -37q-57 0 -94 37q-41 41 -41 107z" />
<glyph unicode="&#xdd;" horiz-adv-x="1071" d="M-14 1331h317l293 -604h4l287 604h196l-399 -786v-545h-285v514zM487 1460l144 312l221 -64l-248 -266z" />
<glyph unicode="&#xde;" horiz-adv-x="1150" d="M201 0v1331h282v-184h125q227 0 353 -116t126 -349q0 -103 -29 -188t-76 -140.5t-109.5 -93t-127 -54t-131.5 -16.5h-131v-190h-282zM483 328h111q51 0 86 14.5t62.5 51t41 105t13.5 171.5q0 129 -25.5 205t-68 103.5t-109.5 27.5h-111v-678z" />
<glyph unicode="&#xdf;" horiz-adv-x="1148" d="M123 0v1073q0 250 116.5 366.5t325.5 116.5q184 0 290 -80.5t106 -222.5q0 -184 -193 -276q322 -89 322 -492q0 -268 -108 -388t-306 -120q-71 0 -124.5 11.5t-71.5 23.5l-17 11l31 129q40 -29 118 -29q90 0 137.5 79.5t47.5 280.5q0 159 -26 243t-83 117.5t-164 33.5 v147q7 1 17.5 3.5t38.5 15.5t49.5 33t39 60.5t17.5 92.5q0 101 -32.5 145.5t-104.5 44.5q-84 0 -119 -77t-35 -269v-1073h-272z" />
<glyph unicode="&#xe0;" horiz-adv-x="1050" d="M55 246q0 65 26 119.5t72 91t100.5 64t122 44.5t124.5 26.5t118 14.5v60q0 139 -38.5 191t-130.5 52q-43 0 -104 -18.5t-101 -37.5l-39 -19l-27 131q18 9 48.5 22.5t114.5 36.5t155 23q94 0 163.5 -17.5t123 -58t81 -111.5t27.5 -172v-465q0 -108 43 -108q11 0 28.5 3.5 t29.5 7.5l12 3l8 -106q-142 -46 -228 -46q-60 0 -92.5 30t-42.5 97h-10q-2 -5 -7.5 -13.5t-26.5 -30.5t-48.5 -39t-77 -30.5t-108.5 -13.5q-143 0 -229.5 72t-86.5 197zM236 1440l217 71l174 -301l-127 -34zM340 281q0 -82 32.5 -124t88.5 -42q32 0 59.5 11.5t44.5 28t30 33 t18 28.5l5 11v271q-136 -14 -207 -64.5t-71 -152.5z" />
<glyph unicode="&#xe1;" horiz-adv-x="1050" d="M55 246q0 65 26 119.5t72 91t100.5 64t122 44.5t124.5 26.5t118 14.5v60q0 139 -38.5 191t-130.5 52q-43 0 -104 -18.5t-101 -37.5l-39 -19l-27 131q18 9 48.5 22.5t114.5 36.5t155 23q94 0 163.5 -17.5t123 -58t81 -111.5t27.5 -172v-465q0 -108 43 -108q11 0 28.5 3.5 t29.5 7.5l12 3l8 -106q-142 -46 -228 -46q-60 0 -92.5 30t-42.5 97h-10q-2 -5 -7.5 -13.5t-26.5 -30.5t-48.5 -39t-77 -30.5t-108.5 -13.5q-143 0 -229.5 72t-86.5 197zM340 281q0 -82 32.5 -124t88.5 -42q32 0 59.5 11.5t44.5 28t30 33t18 28.5l5 11v271 q-136 -14 -207 -64.5t-71 -152.5zM430 1184l143 311l222 -63l-248 -267z" />
<glyph unicode="&#xe2;" horiz-adv-x="1050" d="M55 246q0 65 26 119.5t72 91t100.5 64t122 44.5t124.5 26.5t118 14.5v60q0 139 -38.5 191t-130.5 52q-43 0 -104 -18.5t-101 -37.5l-39 -19l-27 131q18 9 48.5 22.5t114.5 36.5t155 23q94 0 163.5 -17.5t123 -58t81 -111.5t27.5 -172v-465q0 -108 43 -108q11 0 28.5 3.5 t29.5 7.5l12 3l8 -106q-142 -46 -228 -46q-60 0 -92.5 30t-42.5 97h-10q-2 -5 -7.5 -13.5t-26.5 -30.5t-48.5 -39t-77 -30.5t-108.5 -13.5q-143 0 -229.5 72t-86.5 197zM250 1292l201 250h143l199 -250l-58 -92l-213 174l-213 -174zM340 281q0 -82 32.5 -124t88.5 -42 q32 0 59.5 11.5t44.5 28t30 33t18 28.5l5 11v271q-136 -14 -207 -64.5t-71 -152.5z" />
<glyph unicode="&#xe3;" horiz-adv-x="1050" d="M55 246q0 65 26 119.5t72 91t100.5 64t122 44.5t124.5 26.5t118 14.5v60q0 139 -38.5 191t-130.5 52q-43 0 -104 -18.5t-101 -37.5l-39 -19l-27 131q18 9 48.5 22.5t114.5 36.5t155 23q94 0 163.5 -17.5t123 -58t81 -111.5t27.5 -172v-465q0 -108 43 -108q11 0 28.5 3.5 t29.5 7.5l12 3l8 -106q-142 -46 -228 -46q-60 0 -92.5 30t-42.5 97h-10q-2 -5 -7.5 -13.5t-26.5 -30.5t-48.5 -39t-77 -30.5t-108.5 -13.5q-143 0 -229.5 72t-86.5 197zM160 1290q3 8 9 20t29 44t49.5 56.5t71 44.5t93.5 20q50 0 97 -15t76 -33.5t66.5 -33.5t71.5 -15 q21 0 39 7t29 16.5t19 19t12 16.5l3 7l74 -72q-2 -7 -6.5 -17.5t-23.5 -38.5t-42.5 -49.5t-65.5 -39t-91 -17.5q-56 0 -111.5 25t-107.5 49.5t-99 24.5q-33 0 -62.5 -23t-43.5 -46l-13 -23zM340 281q0 -82 32.5 -124t88.5 -42q32 0 59.5 11.5t44.5 28t30 33t18 28.5l5 11 v271q-136 -14 -207 -64.5t-71 -152.5z" />
<glyph unicode="&#xe4;" horiz-adv-x="1050" d="M55 246q0 65 26 119.5t72 91t100.5 64t122 44.5t124.5 26.5t118 14.5v60q0 139 -38.5 191t-130.5 52q-43 0 -104 -18.5t-101 -37.5l-39 -19l-27 131q18 9 48.5 22.5t114.5 36.5t155 23q94 0 163.5 -17.5t123 -58t81 -111.5t27.5 -172v-465q0 -108 43 -108q11 0 28.5 3.5 t29.5 7.5l12 3l8 -106q-142 -46 -228 -46q-60 0 -92.5 30t-42.5 97h-10q-2 -5 -7.5 -13.5t-26.5 -30.5t-48.5 -39t-77 -30.5t-108.5 -13.5q-143 0 -229.5 72t-86.5 197zM190 1335q0 63 41 107q41 35 95 35q53 0 94 -35q41 -47 41 -107q0 -62 -41 -106q-40 -37 -94 -37 q-55 0 -95 37q-41 41 -41 106zM340 281q0 -82 32.5 -124t88.5 -42q32 0 59.5 11.5t44.5 28t30 33t18 28.5l5 11v271q-136 -14 -207 -64.5t-71 -152.5zM571 1335q0 63 41 107q38 35 95 35q53 0 94 -35q41 -47 41 -107q0 -62 -41 -106q-40 -37 -94 -37q-58 0 -95 37 q-41 41 -41 106z" />
<glyph unicode="&#xe5;" horiz-adv-x="1050" d="M55 246q0 65 26 119.5t72 91t100.5 64t122 44.5t124.5 26.5t118 14.5v60q0 139 -38.5 191t-130.5 52q-43 0 -104 -18.5t-101 -37.5l-39 -19l-27 131q18 9 48.5 22.5t114.5 36.5t155 23q94 0 163.5 -17.5t123 -58t81 -111.5t27.5 -172v-465q0 -108 43 -108q11 0 28.5 3.5 t29.5 7.5l12 3l8 -106q-142 -46 -228 -46q-60 0 -92.5 30t-42.5 97h-10q-2 -5 -7.5 -13.5t-26.5 -30.5t-48.5 -39t-77 -30.5t-108.5 -13.5q-143 0 -229.5 72t-86.5 197zM307 1343q0 102 60 161t155 59q92 0 153.5 -59.5t61.5 -160.5q0 -102 -59.5 -161.5t-155.5 -59.5 q-99 0 -157 59t-58 162zM340 281q0 -82 32.5 -124t88.5 -42q32 0 59.5 11.5t44.5 28t30 33t18 28.5l5 11v271q-136 -14 -207 -64.5t-71 -152.5zM401 1346q0 -67 32.5 -101.5t88.5 -34.5t88.5 34.5t32.5 101.5q0 64 -34 97.5t-87 33.5t-87 -33.5t-34 -97.5z" />
<glyph unicode="&#xe6;" horiz-adv-x="1531" d="M57 254q0 78 38 140.5t95 100.5t136.5 64.5t147.5 38.5t144 18v39q0 105 -16.5 160t-49 74.5t-93.5 19.5q-43 0 -104 -18.5t-101 -37.5l-39 -19l-27 131q18 9 48 22.5t114 36.5t156 23q196 0 266 -111q117 108 299 108q192 0 297 -119.5t105 -342.5q0 -36 -4.5 -68.5 t-8.5 -46.5l-4 -14h-551q3 -185 54 -261.5t169 -76.5q44 0 85 14t67.5 33.5t47 39.5t29.5 34l9 14l92 -72q-4 -8 -12 -21.5t-39.5 -48.5t-69 -61.5t-102.5 -48t-139 -21.5q-293 0 -408 197q-35 -84 -111 -140.5t-206 -56.5q-141 0 -227.5 75.5t-86.5 201.5zM340 289 q0 -83 33 -128.5t88 -45.5q43 0 75 24t49 65t26 82t12 89q-7 65 -7 119v14q-135 -14 -205.5 -65t-70.5 -154zM905 586h314v47q0 156 -33 218t-115 62q-57 0 -90 -28t-52 -99.5t-24 -199.5z" />
<glyph unicode="&#xe7;" horiz-adv-x="913" d="M59 506q0 250 131.5 395.5t362.5 145.5q63 0 137.5 -20t117.5 -40l44 -20l-27 -131q-16 8 -43 20t-91 32.5t-107 20.5q-46 0 -80 -9.5t-63.5 -36t-47.5 -70.5t-28.5 -114.5t-10.5 -168.5q0 -96 11.5 -167t30 -114t48 -69t60.5 -35.5t71 -9.5q45 0 86 14.5t67 35.5 t45 41.5t27 35.5l9 14l96 -61q-3 -9 -10 -23.5t-34.5 -51.5t-63.5 -65.5t-100.5 -52.5t-141.5 -25l-10 -96q0 -3 18.5 -8.5t45.5 -17.5t54 -30.5t45.5 -53t18.5 -78.5q0 -94 -59.5 -150.5t-173.5 -56.5q-43 0 -79 9.5t-57 23.5t-35.5 28t-20.5 23l-5 10l53 60q5 -7 13.5 -17 t38 -26.5t61.5 -16.5q102 0 102 117q0 27 -12.5 46.5t-31 29t-36.5 14.5t-30.5 7.5t-12.5 4.5l23 183q-197 22 -301.5 155.5t-104.5 368.5z" />
<glyph unicode="&#xe8;" horiz-adv-x="970" d="M59 494q0 266 123 408t332 142q192 0 296.5 -119.5t104.5 -342.5q0 -36 -4 -68.5t-8 -46.5l-4 -14h-551q3 -185 54 -261.5t169 -76.5q44 0 85 14t67.5 33.5t47 39.5t29.5 34l9 14l92 -72q-4 -8 -12 -21.5t-39.5 -48.5t-69 -61.5t-102.5 -48t-139 -21.5q-227 0 -353.5 126 t-126.5 391zM225 1440l217 71l174 -301l-127 -34zM348 586h314v47q0 156 -33 218t-115 62q-57 0 -90 -28t-52 -99.5t-24 -199.5z" />
<glyph unicode="&#xe9;" horiz-adv-x="970" d="M59 494q0 266 123 408t332 142q192 0 296.5 -119.5t104.5 -342.5q0 -36 -4 -68.5t-8 -46.5l-4 -14h-551q3 -185 54 -261.5t169 -76.5q44 0 85 14t67.5 33.5t47 39.5t29.5 34l9 14l92 -72q-4 -8 -12 -21.5t-39.5 -48.5t-69 -61.5t-102.5 -48t-139 -21.5q-227 0 -353.5 126 t-126.5 391zM348 586h314v47q0 156 -33 218t-115 62q-57 0 -90 -28t-52 -99.5t-24 -199.5zM420 1184l143 311l221 -63l-247 -267z" />
<glyph unicode="&#xea;" horiz-adv-x="970" d="M59 494q0 266 123 408t332 142q192 0 296.5 -119.5t104.5 -342.5q0 -36 -4 -68.5t-8 -46.5l-4 -14h-551q3 -185 54 -261.5t169 -76.5q44 0 85 14t67.5 33.5t47 39.5t29.5 34l9 14l92 -72q-4 -8 -12 -21.5t-39.5 -48.5t-69 -61.5t-102.5 -48t-139 -21.5q-227 0 -353.5 126 t-126.5 391zM242 1292l200 250h144l198 -250l-57 -92l-213 174l-213 -174zM348 586h314v47q0 156 -33 218t-115 62q-57 0 -90 -28t-52 -99.5t-24 -199.5z" />
<glyph unicode="&#xeb;" horiz-adv-x="970" d="M59 494q0 266 123 408t332 142q192 0 296.5 -119.5t104.5 -342.5q0 -36 -4 -68.5t-8 -46.5l-4 -14h-551q3 -185 54 -261.5t169 -76.5q44 0 85 14t67.5 33.5t47 39.5t29.5 34l9 14l92 -72q-4 -8 -12 -21.5t-39.5 -48.5t-69 -61.5t-102.5 -48t-139 -21.5q-227 0 -353.5 126 t-126.5 391zM182 1335q0 63 41 107q41 35 94 35q54 0 95 -35q41 -47 41 -107q0 -62 -41 -106q-40 -37 -95 -37q-54 0 -94 37q-41 41 -41 106zM348 586h314v47q0 156 -33 218t-115 62q-57 0 -90 -28t-52 -99.5t-24 -199.5zM563 1335q0 63 41 107q38 35 94 35q54 0 95 -35 q41 -47 41 -107q0 -62 -41 -106q-40 -37 -95 -37q-57 0 -94 37q-41 41 -41 106z" />
<glyph unicode="&#xec;" horiz-adv-x="518" d="M-35 1440l217 71l174 -301l-127 -34zM123 0v1024h272v-1024h-272z" />
<glyph unicode="&#xed;" horiz-adv-x="518" d="M123 0v1024h272v-1024h-272zM160 1184l143 311l221 -63l-248 -267z" />
<glyph unicode="&#xee;" horiz-adv-x="518" d="M-10 1292l200 250h144l198 -250l-57 -92l-213 174l-213 -174zM123 0v1024h272v-1024h-272z" />
<glyph unicode="&#xef;" horiz-adv-x="518" d="M-70 1335q0 63 41 107q41 35 95 35q53 0 94 -35q41 -47 41 -107q0 -62 -41 -106q-40 -37 -94 -37q-55 0 -95 37q-41 41 -41 106zM123 0v1024h272v-1024h-272zM311 1335q0 63 41 107q38 35 94 35q54 0 95 -35q41 -47 41 -107q0 -62 -41 -106q-40 -37 -95 -37q-57 0 -94 37 q-41 41 -41 106z" />
<glyph unicode="&#xf0;" horiz-adv-x="1089" d="M61 512q0 254 118.5 393t328.5 139q120 0 221 -67q-42 177 -133 299l-186 -105l-37 86l162 93q-57 57 -125 102l122 76q90 -46 148 -96l162 92l39 -86l-131 -74q127 -142 196.5 -351t69.5 -456q0 -287 -122 -433.5t-355 -146.5q-223 0 -350.5 141t-127.5 394zM352 512 q0 -223 41.5 -313t145.5 -90q103 0 142.5 90t39.5 315q0 216 -40 306.5t-142 90.5q-104 0 -145.5 -88.5t-41.5 -310.5z" />
<glyph unicode="&#xf1;" horiz-adv-x="1101" d="M123 0v1024h219l35 -84h8q3 4 9.5 11t31.5 25t55 32t82 25t111 11q158 0 236.5 -85t78.5 -265v-694h-272v639q0 137 -30 186t-107 49q-53 0 -99 -18t-66 -36l-20 -19v-801h-272zM164 1290q3 8 9 20t29 44t49.5 56.5t71 44.5t93.5 20q50 0 97 -15t76 -33.5t66.5 -33.5 t71.5 -15q21 0 39 7t29 16.5t19 19t12 16.5l3 7l74 -72q-2 -7 -6.5 -17.5t-23.5 -38.5t-42.5 -49.5t-65.5 -39t-91 -17.5q-56 0 -111.5 25t-107.5 49.5t-99 24.5q-33 0 -62.5 -23t-42.5 -46l-13 -23z" />
<glyph unicode="&#xf2;" horiz-adv-x="1075" d="M59 512q0 256 124 395.5t354 139.5q231 0 355 -139.5t124 -395.5q0 -253 -128 -394t-351 -141q-230 0 -354 139.5t-124 395.5zM223 1440l217 71l174 -301l-127 -34zM352 514q0 -222 41.5 -311.5t143.5 -89.5q101 0 142.5 89t41.5 310t-41 309t-143 88t-143.5 -88 t-41.5 -307z" />
<glyph unicode="&#xf3;" horiz-adv-x="1075" d="M59 512q0 256 124 395.5t354 139.5q231 0 355 -139.5t124 -395.5q0 -253 -128 -394t-351 -141q-230 0 -354 139.5t-124 395.5zM352 514q0 -222 41.5 -311.5t143.5 -89.5q101 0 142.5 89t41.5 310t-41 309t-143 88t-143.5 -88t-41.5 -307zM418 1184l143 311l221 -63 l-247 -267z" />
<glyph unicode="&#xf4;" horiz-adv-x="1075" d="M59 512q0 256 124 395.5t354 139.5q231 0 355 -139.5t124 -395.5q0 -253 -128 -394t-351 -141q-230 0 -354 139.5t-124 395.5zM238 1292l200 250h144l198 -250l-57 -92l-213 174l-213 -174zM352 514q0 -222 41.5 -311.5t143.5 -89.5q101 0 142.5 89t41.5 310t-41 309 t-143 88t-143.5 -88t-41.5 -307z" />
<glyph unicode="&#xf5;" horiz-adv-x="1075" d="M59 512q0 256 124 395.5t354 139.5q231 0 355 -139.5t124 -395.5q0 -253 -128 -394t-351 -141q-230 0 -354 139.5t-124 395.5zM145 1290q3 8 9 20t29 44t49.5 56.5t71 44.5t93.5 20q50 0 97 -15t76.5 -33.5t67 -33.5t71.5 -15q21 0 39 7t29 16.5t19 19t12 16.5l3 7 l74 -72q-2 -7 -7 -17.5t-23.5 -38.5t-42.5 -49.5t-66 -39t-91 -17.5q-45 0 -89.5 15.5t-75.5 34t-72.5 34t-79.5 15.5q-33 0 -62.5 -23t-43.5 -46l-13 -23zM352 514q0 -222 41.5 -311.5t143.5 -89.5q101 0 142.5 89t41.5 310t-41 309t-143 88t-143.5 -88t-41.5 -307z" />
<glyph unicode="&#xf6;" horiz-adv-x="1075" d="M59 512q0 256 124 395.5t354 139.5q231 0 355 -139.5t124 -395.5q0 -253 -128 -394t-351 -141q-230 0 -354 139.5t-124 395.5zM180 1335q0 63 41 107q41 35 94 35q54 0 95 -35q41 -47 41 -107q0 -62 -41 -106q-40 -37 -95 -37q-54 0 -94 37q-41 41 -41 106zM352 514 q0 -222 41.5 -311.5t143.5 -89.5q101 0 142.5 89t41.5 310t-41 309t-143 88t-143.5 -88t-41.5 -307zM561 1335q0 63 41 107q38 35 94 35q54 0 95 -35q40 -46 40 -107q0 -63 -40 -106q-40 -37 -95 -37q-57 0 -94 37q-41 41 -41 106z" />
<glyph unicode="&#xf7;" d="M63 467v151h949v-151h-949zM373 156q0 71 49 123q46 43 115 43q66 0 112 -43q49 -52 49 -123q0 -72 -49 -121q-46 -43 -112 -43q-69 0 -115 43q-49 49 -49 121zM375 930q0 71 49 123q46 43 115 43q66 0 112 -43q49 -52 49 -123q0 -72 -49 -121q-46 -43 -112 -43 q-69 0 -115 43q-49 49 -49 121z" />
<glyph unicode="&#xf8;" horiz-adv-x="1083" d="M59 512q0 256 124 395.5t354 139.5q69 0 145 -17l117 301l119 -22l-127 -324q225 -126 225 -473q0 -253 -128 -394t-351 -141q-57 0 -134 15l-141 -367l-117 23l148 383q-114 60 -174 182.5t-60 298.5zM352 514q0 -173 25 -268l250 641q-34 22 -90 22q-102 0 -143.5 -88 t-41.5 -307zM457 129q31 -16 80 -16q101 0 142.5 89t41.5 310q0 154 -21 242z" />
<glyph unicode="&#xf9;" horiz-adv-x="1101" d="M115 328v696h272v-639q0 -136 32.5 -187t106.5 -51q48 0 93 19.5t65 39.5l21 19v799h272v-1024h-219l-39 90h-4q-3 -5 -9.5 -12.5t-31 -27t-54 -34.5t-80.5 -27t-110 -12q-158 0 -236.5 85.5t-78.5 265.5zM264 1440l217 71l174 -301l-127 -34z" />
<glyph unicode="&#xfa;" horiz-adv-x="1101" d="M115 328v696h272v-639q0 -136 32.5 -187t106.5 -51q48 0 93 19.5t65 39.5l21 19v799h272v-1024h-219l-39 90h-4q-3 -5 -9.5 -12.5t-31 -27t-54 -34.5t-80.5 -27t-110 -12q-158 0 -236.5 85.5t-78.5 265.5zM459 1184l143 311l221 -63l-248 -267z" />
<glyph unicode="&#xfb;" horiz-adv-x="1101" d="M115 328v696h272v-639q0 -136 32.5 -187t106.5 -51q48 0 93 19.5t65 39.5l21 19v799h272v-1024h-219l-39 90h-4q-3 -5 -9.5 -12.5t-31 -27t-54 -34.5t-80.5 -27t-110 -12q-158 0 -236.5 85.5t-78.5 265.5zM279 1292l200 250h144l198 -250l-57 -92l-213 174l-213 -174z " />
<glyph unicode="&#xfc;" horiz-adv-x="1101" d="M115 328v696h272v-639q0 -136 32.5 -187t106.5 -51q48 0 93 19.5t65 39.5l21 19v799h272v-1024h-219l-39 90h-4q-3 -5 -9.5 -12.5t-31 -27t-54 -34.5t-80.5 -27t-110 -12q-158 0 -236.5 85.5t-78.5 265.5zM221 1335q0 63 41 107q41 35 94 35q54 0 95 -35q41 -47 41 -107 q0 -62 -41 -106q-40 -37 -95 -37q-54 0 -94 37q-41 41 -41 106zM602 1335q0 63 41 107q38 35 94 35q53 0 94 -35q41 -47 41 -107q0 -62 -41 -106q-40 -37 -94 -37q-57 0 -94 37q-41 41 -41 106z" />
<glyph unicode="&#xfd;" horiz-adv-x="985" d="M14 1024h330l250 -729l211 729h170l-354 -1047q-37 -102 -67.5 -173.5t-69.5 -140t-78.5 -109t-90.5 -65t-110 -24.5q-47 0 -87 7.5t-56 15.5l-17 8l23 160q53 -23 106 -23q49 0 86 18.5t70 62t59.5 99t61.5 146.5zM422 1184l143 311l221 -63l-247 -267z" />
<glyph unicode="&#xfe;" horiz-adv-x="1112" d="M119 -520v2048l272 16v-588h8q2 4 7.5 10.5t26 24t45.5 30.5t70 23.5t97 10.5q183 0 295.5 -144.5t112.5 -378.5q0 -255 -113.5 -409t-314.5 -154q-144 0 -234 68v-549zM391 201q2 -3 5.5 -8t17 -18.5t30 -23.5t46 -18t63.5 -8q114 0 160.5 91t46.5 310q0 207 -44.5 288 t-152.5 81q-40 0 -74 -14.5t-54.5 -35.5t-30.5 -35.5t-13 -21.5v-587z" />
<glyph unicode="&#xff;" horiz-adv-x="985" d="M14 1024h330l250 -729l211 729h170l-354 -1047q-37 -102 -67.5 -173.5t-69.5 -140t-78.5 -109t-90.5 -65t-110 -24.5q-47 0 -87 7.5t-56 15.5l-17 8l23 160q53 -23 106 -23q49 0 86 18.5t70 62t59.5 99t61.5 146.5zM184 1335q0 63 41 107q41 35 94 35q54 0 95 -35 q41 -47 41 -107q0 -62 -41 -106q-40 -37 -95 -37q-54 0 -94 37q-41 41 -41 106zM565 1335q0 63 41 107q38 35 94 35q54 0 95 -35q41 -47 41 -107q0 -62 -41 -106q-40 -37 -95 -37q-57 0 -94 37q-41 41 -41 106z" />
<glyph unicode="&#x152;" horiz-adv-x="1902" d="M74 664q0 319 156.5 503.5t445.5 184.5q177 0 309 -72v51h801v-147h-516v-344q8 -62 10 -95h444v-143h-442q-3 -62 -12 -117v-338h545v-147h-830v49q-132 -72 -309 -72q-289 0 -445.5 184t-156.5 503zM385 664q0 -286 67 -413.5t224 -127.5t226 128t69 413q0 282 -70 411 t-225 129q-153 0 -222 -129t-69 -411z" />
<glyph unicode="&#x153;" horiz-adv-x="1638" d="M59 512q0 256 124 395.5t354 139.5q208 0 335 -121q118 118 310 118t296.5 -119.5t104.5 -342.5q0 -36 -4 -68.5t-8 -46.5l-4 -14h-551q3 -185 54 -261.5t169 -76.5q44 0 85 14t67.5 33.5t47 39.5t29.5 34l9 14l92 -72q-4 -8 -12.5 -21.5t-39.5 -48.5t-69 -61.5t-103 -48 t-139 -21.5q-223 0 -344 115q-121 -115 -325 -115q-230 0 -354 139.5t-124 395.5zM352 514q0 -222 41.5 -311.5t143.5 -89.5q101 0 142.5 89t41.5 310t-41 309t-143 88t-143.5 -88t-41.5 -307zM1016 586h313v47q0 156 -32.5 218t-114.5 62q-57 0 -90 -28t-52 -99.5 t-24 -199.5z" />
<glyph unicode="&#x178;" horiz-adv-x="1071" d="M-14 1331h317l293 -604h4l287 604h196l-399 -786v-545h-285v514zM262 1612q0 62 41 106q41 35 94 35q54 0 95 -35q40 -46 40 -106q0 -64 -40 -107q-40 -37 -95 -37q-54 0 -94 37q-41 41 -41 107zM643 1612q0 62 41 106q38 35 94 35q53 0 94 -35q41 -47 41 -106 q0 -63 -41 -107q-40 -37 -94 -37q-57 0 -94 37q-41 41 -41 107z" />
<glyph unicode="&#x2c6;" horiz-adv-x="731" d="M92 1292l201 250h143l199 -250l-57 -92l-213 174l-213 -174z" />
<glyph unicode="&#x2dc;" horiz-adv-x="876" d="M72 1290q3 8 9 20t29 44t49.5 56.5t71 44.5t93.5 20q50 0 97 -15t76 -33.5t66.5 -33.5t71.5 -15q21 0 39 7t29 16.5t19 19t12 16.5l3 7l74 -72q-2 -7 -6.5 -17.5t-23.5 -38.5t-42.5 -49.5t-65.5 -39t-91 -17.5q-56 0 -111.5 25t-107.5 49.5t-99 24.5q-33 0 -62.5 -23 t-43.5 -46l-13 -23z" />
<glyph unicode="&#x2000;" horiz-adv-x="919" />
<glyph unicode="&#x2001;" horiz-adv-x="1839" />
<glyph unicode="&#x2002;" horiz-adv-x="919" />
<glyph unicode="&#x2003;" horiz-adv-x="1839" />
<glyph unicode="&#x2004;" horiz-adv-x="613" />
<glyph unicode="&#x2005;" horiz-adv-x="459" />
<glyph unicode="&#x2006;" horiz-adv-x="306" />
<glyph unicode="&#x2007;" horiz-adv-x="306" />
<glyph unicode="&#x2008;" horiz-adv-x="229" />
<glyph unicode="&#x2009;" horiz-adv-x="367" />
<glyph unicode="&#x200a;" horiz-adv-x="102" />
<glyph unicode="&#x2010;" horiz-adv-x="681" d="M63 487v152h558v-152h-558z" />
<glyph unicode="&#x2011;" horiz-adv-x="681" d="M63 487v152h558v-152h-558z" />
<glyph unicode="&#x2012;" horiz-adv-x="681" d="M63 487v152h558v-152h-558z" />
<glyph unicode="&#x2013;" d="M63 487v152h949v-152h-949z" />
<glyph unicode="&#x2014;" horiz-adv-x="1388" d="M63 487v152h1264v-152h-1264z" />
<glyph unicode="&#x2018;" horiz-adv-x="370" d="M35 1085q0 119 66.5 253.5t162.5 213.5l72 -75q-70 -61 -114.5 -146.5t-47.5 -163.5h14q59 0 99 -34q41 -47 41 -107t-41 -104q-40 -37 -99 -37q-56 0 -96 37q-8 6 -20 22q-37 58 -37 141z" />
<glyph unicode="&#x2019;" horiz-adv-x="368" d="M27 958q69 62 113.5 146t47.5 162h-14q-58 0 -98 37q-41 41 -41 104q0 65 41 106q40 37 98 37q55 0 98 -37l7 -8q49 -55 49 -155q0 -119 -67 -253.5t-163 -213.5z" />
<glyph unicode="&#x201a;" horiz-adv-x="368" d="M27 -272q69 62 113.5 146.5t47.5 162.5h-14q-57 0 -98 35q-41 41 -41 106q0 64 41 105q39 36 98 36q56 0 98 -36l9 -11q47 -56 47 -151q0 -118 -67 -253.5t-163 -215.5z" />
<glyph unicode="&#x201c;" horiz-adv-x="753" d="M35 1085q0 119 66.5 253.5t162.5 213.5l72 -75q-70 -61 -114.5 -146.5t-47.5 -163.5h14q59 0 99 -34q41 -47 41 -107t-41 -104q-40 -37 -99 -37q-56 0 -96 37q-8 6 -20 22q-37 58 -37 141zM418 1085q0 119 66.5 253.5t162.5 213.5l72 -75q-70 -61 -114.5 -146.5 t-47.5 -163.5h14q59 0 99 -34q41 -47 41 -107t-41 -104q-40 -37 -99 -37q-56 0 -96 37q-8 6 -20 22q-37 58 -37 141z" />
<glyph unicode="&#x201d;" horiz-adv-x="753" d="M27 958q69 62 113.5 146t47.5 162h-14q-58 0 -98 37q-41 41 -41 104q0 65 41 106q40 37 98 37q55 0 98 -37l7 -8q49 -55 49 -155q0 -119 -67 -253.5t-163 -213.5zM410 958q69 62 113.5 146t47.5 162h-14q-58 0 -98 37q-41 41 -41 104q0 65 41 106q40 37 98 37 q55 0 98 -37l7 -8q49 -55 49 -155q0 -119 -67 -253.5t-163 -213.5z" />
<glyph unicode="&#x201e;" horiz-adv-x="753" d="M27 -272q69 62 113.5 146.5t47.5 162.5h-14q-57 0 -98 35q-41 41 -41 106q0 64 41 105q39 36 98 36q56 0 98 -36l9 -11q47 -56 47 -151q0 -118 -67 -253.5t-163 -215.5zM410 -272q69 62 113.5 146.5t47.5 162.5h-14q-57 0 -98 35q-41 41 -41 106q0 64 41 105q39 36 98 36 q56 0 98 -36l9 -11q47 -56 47 -151q0 -118 -67 -253.5t-163 -215.5z" />
<glyph unicode="&#x2022;" horiz-adv-x="778" d="M123 676q0 110 74 190q73 64 176 64q104 0 174 -64q76 -82 76 -190q0 -112 -76 -191q-71 -65 -174 -65q-102 0 -176 65q-74 77 -74 191z" />
<glyph unicode="&#x2026;" horiz-adv-x="1656" d="M139 131q0 71 49 123q46 43 115 43q67 0 113 -43q49 -52 49 -123q0 -72 -49 -121q-46 -43 -113 -43q-69 0 -115 43q-49 49 -49 121zM664 131q0 71 49 123q46 43 114 43q67 0 113 -43q49 -52 49 -123q0 -72 -49 -121q-46 -43 -113 -43q-68 0 -114 43q-49 49 -49 121z M1186 131q0 71 49 123q46 43 115 43q66 0 112 -43q49 -52 49 -123q0 -72 -49 -121q-46 -43 -112 -43q-69 0 -115 43q-49 49 -49 121z" />
<glyph unicode="&#x202f;" horiz-adv-x="367" />
<glyph unicode="&#x2039;" horiz-adv-x="720" d="M162 512l364 381l70 -76l-182 -307l182 -309l-72 -80z" />
<glyph unicode="&#x203a;" horiz-adv-x="720" d="M121 195l184 307l-182 311l74 80l358 -391l-360 -381z" />
<glyph unicode="&#x205f;" horiz-adv-x="459" />
<glyph unicode="&#x20ac;" horiz-adv-x="1163" d="M82 457v121h102q-2 27 -2 81v56l-100 10v121h111q67 504 528 504q88 0 173 -22.5t126 -45.5l41 -22l-31 -142q-15 10 -42 24t-99.5 38t-134.5 24q-92 0 -145.5 -31t-83 -108.5t-38.5 -218.5h447v-141h-451v-127h451v-144h-440q10 -96 31 -159t57.5 -97.5t81 -47.5 t110.5 -13q48 0 95.5 15t81 37t60 43.5t39.5 36.5l13 15l53 -102q-2 -4 -7 -10.5t-22.5 -26t-38 -37t-55 -38.5t-72.5 -36.5t-90.5 -26t-109.5 -10.5q-444 0 -522 467z" />
<glyph unicode="&#x2122;" horiz-adv-x="1630" d="M104 1421v115h633v-113l-241 -2v-602h-168v602h-224zM770 819l45 717h170l168 -569l197 569h163l17 -717h-158l-14 457l-160 -457h-147l-158 481l-12 -481h-111z" />
<glyph unicode="&#xe000;" horiz-adv-x="1024" d="M0 0v1024h1024v-1024h-1024z" />
</font>
</defs>
</svg>
