<?xml version="1.0" standalone="no"?>
<!DOCTYPE svg PUBLIC "-//W3C//DTD SVG 1.1//EN" "http://www.w3.org/Graphics/SVG/1.1/DTD/svg11.dtd" >
<svg xmlns="http://www.w3.org/2000/svg">
<metadata></metadata>
<defs>
<font id="arsenalregular" horiz-adv-x="1339" >
<font-face units-per-em="2048" ascent="1536" descent="-512" />
<missing-glyph horiz-adv-x="477" />
<glyph unicode="&#xfb01;" horiz-adv-x="1075" d="M88 924v86l107 12v147q0 198 75 291.5t256 93.5q95 0 167.5 -46t119.5 -107q15 6 35 6q37 0 61 -21q25 -28 25 -67q0 -38 -25 -66q-28 -22 -61 -22q-38 0 -60 22q-26 26 -26 66q0 20 6 35q-89 106 -213 106q-120 0 -166.5 -66t-46.5 -241v-129h297v-100h-297v-924h-147 v924h-107zM772 0v1024h150v-1024h-150z" />
<glyph unicode="&#xfb02;" horiz-adv-x="1071" d="M88 924v86l107 12v147q0 385 266 385q136 0 307 -81v59l147 8v-1540h-147v1382q-157 80 -268 80q-86 0 -122 -67.5t-36 -241.5v-129h297v-100h-297v-924h-147v924h-107z" />
<glyph horiz-adv-x="2048" />
<glyph horiz-adv-x="2048" />
<glyph unicode="&#xd;" horiz-adv-x="2048" />
<glyph unicode=" "  horiz-adv-x="477" />
<glyph unicode="&#x09;" horiz-adv-x="477" />
<glyph unicode="&#xa0;" horiz-adv-x="477" />
<glyph unicode="!" horiz-adv-x="565" d="M193 76q0 44 28 69t64 25q37 0 65 -25q27 -27 27 -69q0 -43 -27 -70q-27 -24 -65 -24q-37 0 -64 24q-28 25 -28 70zM203 1366v170h166v-170l-39 -932h-90z" />
<glyph unicode="&#x22;" horiz-adv-x="612" d="M70 1536l137 -4l-45 -471h-84zM358 1536l138 -4l-45 -471h-84z" />
<glyph unicode="#" horiz-adv-x="983" d="M100 446v84h181l55 267h-236v86h254l60 280l69 -20l-55 -260h213l55 258l70 -21l-49 -237h164v-86h-183l-55 -267h238v-84h-256l-58 -282l-69 20l53 262h-215l-53 -260l-70 21l49 239h-162zM354 530h215l56 267h-215z" />
<glyph unicode="$" horiz-adv-x="835" d="M74 266l51 72q3 -5 10 -14t31 -32t51 -40.5t72 -32t94 -14.5q114 0 172.5 57t58.5 139q0 55 -27.5 94.5t-71 61.5t-96.5 40.5t-106.5 40.5t-97 51t-71 81.5t-27.5 124.5q0 110 69 182.5t185 93.5l10 263h86l12 -256q62 -3 124 -22.5t93 -37.5l31 -18l-25 -88 q-4 3 -12 8.5t-33.5 20t-51.5 25t-63.5 19.5t-72.5 9q-95 0 -153 -47t-58 -119q0 -49 22 -86t58 -58.5t82 -41.5t94 -35t94 -39t82 -52.5t58 -77.5t22 -112q0 -118 -74 -203.5t-217 -103.5l-8 -221h-86l-12 217q-61 4 -114.5 21t-86 38.5t-56 42.5t-32.5 35z" />
<glyph unicode="%" horiz-adv-x="1642" d="M98 971q0 176 86 281.5t236 105.5q147 0 234 -106.5t87 -280.5q0 -176 -85.5 -280.5t-235.5 -104.5q-154 0 -238 104t-84 281zM221 973q0 -145 51 -223t146 -78t147.5 78.5t52.5 222.5q0 145 -51.5 222t-146.5 77q-97 0 -148 -76.5t-51 -222.5zM483 25l576 1288l88 -21 l-576 -1288zM903 356q0 176 86 281.5t236 105.5q147 0 234 -106.5t87 -280.5q0 -176 -85.5 -280.5t-235.5 -104.5q-154 0 -238 104t-84 281zM1026 358q0 -145 51 -223t146 -78t147.5 78.5t52.5 222.5q0 145 -51.5 222t-146.5 77q-97 0 -148 -76.5t-51 -222.5z" />
<glyph unicode="&#x26;" horiz-adv-x="1234" d="M98 358q0 129 75.5 212t186.5 118q-83 41 -138.5 119t-55.5 194q0 158 97.5 253.5t264.5 95.5q63 0 127.5 -16t97.5 -32l33 -16l-16 -88q-10 7 -28.5 16.5t-74 26t-108.5 16.5q-117 0 -179.5 -70t-62.5 -196q0 -129 60 -195.5t139 -66.5h252l68 295h67v-295h264v-88h-264 v-358q0 -123 30.5 -166t102.5 -43q36 0 71 6.5t52 13.5l17 6l4 -82q-6 -4 -19 -10.5t-62 -17t-108 -10.5q-79 0 -129 27.5t-74 92.5q-96 -120 -280 -120q-107 0 -188 29t-128.5 81.5t-70.5 119t-23 148.5zM254 360q0 -286 276 -286q169 0 236 137q-2 18 -2 63v367h-275 q-95 -5 -165 -79t-70 -202z" />
<glyph unicode="'" horiz-adv-x="323" d="M70 1536l137 -4l-45 -471h-84z" />
<glyph unicode="(" horiz-adv-x="628" d="M174 557q0 129 16 250.5t42 212t57 170t62.5 133.5t57.5 93t42 57l16 18l78 -43q-9 -12 -24.5 -35.5t-55 -106.5t-69.5 -178t-54.5 -249.5t-24.5 -321.5q0 -168 23.5 -320.5t57 -250.5t67 -171.5t57.5 -106.5l23 -32l-74 -43q-6 6 -17 18t-41.5 54.5t-58.5 91.5 t-62.5 130.5t-59 169.5t-41.5 209.5t-17 250.5z" />
<glyph unicode=")" horiz-adv-x="628" d="M82 -324q9 12 24.5 36t54.5 107.5t69 178.5t54.5 249t24.5 320t-23.5 317.5t-56.5 249.5t-66.5 172.5t-56.5 107.5l-24 34l76 43q12 -12 32 -35.5t70.5 -107.5t89.5 -182t71 -260t32 -339q0 -129 -16.5 -250.5t-42.5 -212t-57 -170t-62.5 -133.5t-57.5 -93t-43 -57 l-16 -18z" />
<glyph unicode="*" horiz-adv-x="804" d="M39 1079l43 144l293 -162l-41 381h137l-45 -381l297 162l41 -144l-322 -73l228 -281l-113 -90l-156 332l-155 -332l-111 90l225 279z" />
<glyph unicode="+" horiz-adv-x="835" d="M70 520v96h305v357h90v-357h299v-96h-299v-356h-90v356h-305z" />
<glyph unicode="," horiz-adv-x="462" d="M92 -285q64 59 102.5 151t36.5 167h-6q-34 0 -59 22q-25 25 -25 64q0 35 25 63q24 21 57 21q36 0 60 -21l10 -14q22 -34 22 -98q0 -99 -51.5 -217.5t-128.5 -182.5z" />
<glyph unicode="-" horiz-adv-x="608" d="M70 520v96h469v-96h-469z" />
<glyph unicode="." horiz-adv-x="497" d="M154 76q0 44 28 69t64 25q37 0 65 -25q27 -27 27 -69q0 -43 -27 -70q-27 -24 -65 -24q-37 0 -64 24q-28 25 -28 70z" />
<glyph unicode="/" horiz-adv-x="854" d="M2 -512l768 2048h113l-766 -2048h-115z" />
<glyph unicode="0" horiz-adv-x="1150" d="M115 664q0 326 116 506t344 180q229 0 345 -180.5t116 -505.5q0 -326 -116 -505t-345 -179t-344.5 179t-115.5 505zM279 664q0 -307 72 -448.5t224 -141.5q151 0 224 142t73 448q0 305 -73 448t-224 143q-152 0 -224 -142.5t-72 -448.5z" />
<glyph unicode="1" horiz-adv-x="755" d="M102 1155l306 176h122v-1331h-147v1212l-246 -137z" />
<glyph unicode="2" horiz-adv-x="972" d="M88 0v123q17 7 65 45t115 99t138 144t132 171.5t100.5 191t39.5 193.5q0 146 -58.5 214t-199.5 68q-68 0 -140.5 -28t-111.5 -56l-39 -28l-16 92q6 5 17 13t46 29t71 37t89.5 29t105.5 13q206 0 303 -100t97 -271q0 -96 -43.5 -202.5t-106 -194t-148.5 -178t-154 -150 t-140 -115.5h629v-139h-791z" />
<glyph unicode="3" horiz-adv-x="972" d="M80 125l49 80q4 -5 12.5 -13.5t37.5 -30.5t60.5 -39t81 -30.5t101.5 -13.5q146 0 220.5 80t74.5 231q0 135 -63 209t-183 74q-31 0 -61 -11t-44 -23l-14 -11l-53 61l377 502h-535l9 141h669v-96l-368 -481q24 6 55 6q163 0 264.5 -101t101.5 -270q0 -190 -121 -299.5 t-313 -109.5q-69 0 -131.5 15t-102 36t-69 42.5t-42.5 36.5z" />
<glyph unicode="4" horiz-adv-x="1007" d="M61 414q85 165 177 424.5t157 511.5l142 -19q-115 -439 -361 -903h469l35 709h117v-709h145v-82l-145 -10v-336h-152v336h-573z" />
<glyph unicode="5" horiz-adv-x="952" d="M53 123l53 76q4 -5 11.5 -13t33 -29t55.5 -37t77.5 -29t99.5 -13q150 0 236 89t86 251q0 143 -78 227t-207 84q-64 0 -111.5 -19t-64.5 -38l-2 -6l-62 8l62 657h557l-6 -143h-474l-34 -400q75 27 147 27q194 0 311 -106.5t117 -288.5q0 -136 -65 -237.5t-170 -152 t-234 -50.5q-66 0 -125 14.5t-96.5 35.5t-65 42.5t-39.5 35.5z" />
<glyph unicode="6" horiz-adv-x="1058" d="M115 512q0 81 6 150q21 346 137 517t309 171q63 0 128.5 -17.5t99.5 -34.5l34 -18l-20 -90q-12 7 -33.5 18t-81.5 29t-114 18q-301 0 -318 -542q123 127 297 127q186 0 294 -113t108 -301q0 -92 -26 -172t-76 -141.5t-129.5 -97t-180.5 -35.5q-208 0 -321 137.5 t-113 394.5zM270 465q0 -395 279 -395q68 0 119 28t80 78t43 112.5t14 139.5q0 148 -66 238t-198 90q-163 0 -262 -150l2 -2q-11 -55 -11 -139z" />
<glyph unicode="7" horiz-adv-x="862" d="M84 1184v147h739v-123q-134 -252 -258.5 -589t-179.5 -619h-162q101 462 473 1184h-612z" />
<glyph unicode="8" horiz-adv-x="1028" d="M98 348q0 71 24 129t66 97t86 64t95 42q-45 14 -83.5 36.5t-77 60t-61 97.5t-22.5 136q0 160 104.5 250t284.5 90q181 0 286 -91t105 -255q0 -71 -22.5 -128t-61 -94.5t-79 -60.5t-87.5 -39q39 -10 73.5 -25t73.5 -42.5t66.5 -63t45.5 -89t18 -118.5q0 -187 -110 -275.5 t-308 -88.5q-197 0 -306.5 90t-109.5 278zM262 352q0 -289 252 -289t252 287q0 68 -20.5 121.5t-48.5 83t-67 49.5t-66.5 27t-55.5 10q-26 -3 -52 -10t-63 -27t-64.5 -49.5t-47 -82t-19.5 -120.5zM283 1004q0 -66 17.5 -118t42.5 -81.5t59.5 -49.5t60.5 -27.5t53 -10.5 q25 2 49.5 8.5t59 25.5t59.5 48t43 81t18 119q0 267 -231 267t-231 -262z" />
<glyph unicode="9" horiz-adv-x="1058" d="M98 883q0 92 28 175.5t80 149t134 104t182 38.5q206 0 314 -137t108 -396q0 -97 -4 -143q-13 -338 -141.5 -516t-325.5 -178q-56 0 -105 10t-79.5 24.5t-52.5 29t-32 24.5l-9 10l38 88q3 -4 9.5 -10t29 -22t47.5 -28t65 -22t83 -10q143 0 231 132.5t97 397.5 q-107 -139 -295 -139q-185 0 -293.5 115t-108.5 303zM254 889q0 -149 66.5 -244.5t197.5 -95.5q58 0 107.5 18.5t80 47t48.5 56t26 52.5q6 56 6 141q0 198 -63 297t-201 99q-90 0 -152 -53.5t-89 -135t-27 -182.5z" />
<glyph unicode=":" horiz-adv-x="501" d="M154 76q0 44 28 69t64 25q37 0 65 -25q27 -27 27 -69q0 -43 -27 -70q-27 -24 -65 -24q-37 0 -64 24q-28 25 -28 70zM154 852q0 45 28 70q27 24 64 24q38 0 65 -24q27 -27 27 -70t-27 -70q-27 -24 -65 -24q-37 0 -64 24q-28 25 -28 70z" />
<glyph unicode=";" horiz-adv-x="497" d="M113 -285q64 59 102.5 151t36.5 167h-6q-35 0 -60 22q-24 24 -24 64q0 36 24 63q24 21 58 21q35 0 59 -21l10 -14q23 -36 23 -98q0 -99 -51.5 -217.5t-128.5 -182.5zM154 852q0 45 28 70q27 24 64 24q38 0 65 -24q27 -27 27 -70t-27 -70q-27 -24 -65 -24q-37 0 -64 24 q-28 25 -28 70z" />
<glyph unicode="&#x3c;" horiz-adv-x="753" d="M125 651l491 408l52 -60l-402 -348l404 -350l-54 -59z" />
<glyph unicode="=" horiz-adv-x="962" d="M70 326v96h823v-96h-823zM70 715v96h823v-96h-823z" />
<glyph unicode="&#x3e;" horiz-adv-x="753" d="M86 301l397 350l-397 348l51 60l494 -408l-494 -409z" />
<glyph unicode="?" horiz-adv-x="841" d="M82 1444q4 4 13 11.5t39 26.5t63.5 33.5t87 26.5t110.5 12q92 0 163.5 -29.5t113 -79t62 -108.5t20.5 -125q0 -84 -24 -149t-62 -107t-84 -77.5t-92 -71.5t-84 -77.5t-62 -106.5t-24 -148q0 -29 2 -45l-64 -6q-10 56 -10 123q0 73 18.5 130t48 94.5t65.5 69.5t72 63.5 t65.5 68t48 92.5t18.5 127q0 121 -55 194.5t-173 73.5q-46 0 -90 -10.5t-73.5 -26t-52.5 -31t-34 -26.5l-10 -10zM207 76q0 43 29 69q28 25 63 25q38 0 66 -25q26 -26 26 -69q0 -44 -26 -70q-27 -24 -66 -24q-36 0 -63 24q-29 26 -29 70z" />
<glyph unicode="@" horiz-adv-x="1701" d="M115 385q0 431 205.5 672t592.5 241q332 0 509 -187.5t177 -528.5q0 -161 -28.5 -281.5t-79 -190.5t-112 -103.5t-134.5 -33.5q-76 0 -121 25t-59 86q-73 -113 -225 -113q-154 0 -246 105t-92 311q0 199 99 324t261 125q123 0 205 -82l29 53h65v-623q0 -77 24 -107 t72 -30q33 0 63 14t60.5 51.5t52 95.5t35 153t13.5 217q0 315 -143.5 475.5t-424.5 160.5q-318 0 -491.5 -207t-173.5 -622q0 -378 170.5 -571t470.5 -193q67 0 128.5 11t106.5 28t84.5 38t65.5 42.5t44.5 38.5t27.5 28l8 11l39 -74q-6 -9 -17 -23.5t-54.5 -51.5 t-95.5 -65.5t-143 -51.5t-194 -23q-377 0 -575.5 222.5t-198.5 633.5zM629 387q0 -340 239 -340q41 0 75.5 14.5t57 38t35.5 43.5t21 41v471q-7 16 -17.5 31t-31 34t-54.5 30.5t-77 11.5q-123 0 -185.5 -98t-62.5 -277z" />
<glyph unicode="A" horiz-adv-x="1163" d="M47 0l449 1331h182l440 -1331h-162l-139 410h-522l-139 -410h-109zM324 494h467l-232 718z" />
<glyph unicode="B" horiz-adv-x="1110" d="M193 0v1331h335q200 0 310 -91.5t110 -240.5q0 -110 -54.5 -184t-137.5 -117q118 -32 187 -114t69 -207q0 -181 -120 -279t-362 -98h-337zM348 90h176q334 0 334 293q0 132 -71.5 197t-188.5 65h-250v-555zM348 729h242q30 0 63 12.5t67.5 39.5t56.5 81t22 127 q0 126 -75.5 189t-201.5 63h-174v-512z" />
<glyph unicode="C" horiz-adv-x="1167" d="M98 653q0 319 156 508t418 189q59 0 121 -11.5t108.5 -28t84 -33.5t57.5 -29l20 -11l-19 -98q-7 4 -20 11.5t-53 26t-80 33t-96.5 26t-106.5 11.5q-199 0 -311.5 -150.5t-112.5 -439.5q0 -285 115 -430t321 -145q69 0 132.5 20.5t104.5 50t72.5 59.5t45.5 50l14 21 l57 -66q-3 -5 -8 -13.5t-25 -33t-43 -47t-61.5 -50t-81 -47t-102 -33t-123.5 -13.5q-276 0 -430 178.5t-154 494.5z" />
<glyph unicode="D" horiz-adv-x="1298" d="M193 0v1331h405q287 0 445.5 -172.5t158.5 -496.5q0 -322 -157 -492t-447 -170h-405zM348 98h252q434 0 434 564q0 571 -436 571h-250v-1135z" />
<glyph unicode="E" horiz-adv-x="1038" d="M193 0v1331h716v-98h-561v-512h514v-94h-514v-529h606v-98h-761z" />
<glyph unicode="F" horiz-adv-x="950" d="M193 0v1331h731v-98h-576v-531h496v-94h-496v-608h-155z" />
<glyph unicode="G" horiz-adv-x="1269" d="M98 662q0 326 155 507t441 181q59 0 121 -11.5t108.5 -28t84 -33.5t57.5 -29l20 -11l-18 -98q-7 4 -20 11.5t-53 26t-80 33t-96.5 26t-106.5 11.5q-228 0 -337.5 -146t-109.5 -439q0 -286 107 -433t297 -147q68 0 124 19.5t87.5 45t55.5 61t32 55.5t14 40v301h-272v88 h403v-692h-76l-39 145q-113 -165 -352 -165q-260 0 -403.5 180t-143.5 502z" />
<glyph unicode="H" horiz-adv-x="1306" d="M193 0v1331h155v-598h608v598h156v-1331h-156v639h-608v-639h-155z" />
<glyph unicode="I" horiz-adv-x="542" d="M193 0v1331h155v-1331h-155z" />
<glyph unicode="J" horiz-adv-x="741" d="M12 66l41 79q2 -3 6 -7.5t18.5 -16t31.5 -20.5t47 -16t63 -7q31 0 56.5 7t51.5 27.5t43.5 54t28.5 91t11 133.5v940h153v-940q0 -120 -23 -203t-67 -127t-96.5 -62.5t-122.5 -18.5q-53 0 -97 9t-69.5 21.5t-44 25t-25.5 21.5z" />
<glyph unicode="K" horiz-adv-x="1187" d="M193 0v1331h155v-725l162 144l448 581h125l-467 -594l531 -737h-195l-450 618l-154 -129v-489h-155z" />
<glyph unicode="L" horiz-adv-x="964" d="M193 0v1331h155v-1233h592v-98h-747z" />
<glyph unicode="M" horiz-adv-x="1710" d="M193 0l6 1331l4 -6l-2 6h190l469 -1141h2l469 1141h180l7 -1331h-152l-6 1141h-2l-461 -1141h-125l-463 1141l-4 -1141h-112z" />
<glyph unicode="N" horiz-adv-x="1333" d="M193 0v1331h161l680 -1098l-6 50v1048h113v-1331h-135l-709 1135h-2l10 -64v-1071h-112z" />
<glyph unicode="O" d="M98 664q0 318 151.5 502t418.5 184q269 0 421 -184t152 -502q0 -319 -152 -501.5t-421 -182.5q-268 0 -419 182.5t-151 501.5zM264 664q0 -286 104 -436t300 -150q197 0 302 150t105 436q0 285 -105.5 436t-301.5 151q-194 0 -299 -151t-105 -436z" />
<glyph unicode="P" horiz-adv-x="1015" d="M193 0v1331h319q205 0 318.5 -107t113.5 -315q0 -96 -25 -173t-66.5 -126.5t-97.5 -82.5t-115.5 -46.5t-123.5 -13.5h-168v-467h-155zM348 553h146q286 0 286 350q0 338 -284 338h-148v-688z" />
<glyph unicode="Q" d="M98 664q0 318 151.5 502t418.5 184q270 0 421.5 -180.5t151.5 -499.5q0 -285 -123 -466t-344 -216q151 -228 301 -228q31 0 68 13l10 -78q-53 -21 -109 -21q-121 0 -238 87t-190 221q-245 17 -381.5 198t-136.5 484zM264 664q0 -284 104.5 -435t299.5 -151q197 0 302 151 t105 435q0 282 -106 434.5t-301 152.5q-194 0 -299 -152.5t-105 -434.5z" />
<glyph unicode="R" horiz-adv-x="1103" d="M193 0v1331h321q203 0 317.5 -105.5t114.5 -301.5q0 -158 -68 -258.5t-178 -143.5l334 -522h-178l-305 494h-203v-494h-155zM348 586h166q133 0 200.5 75.5t67.5 256.5q0 323 -286 323h-148v-655z" />
<glyph unicode="S" horiz-adv-x="1003" d="M90 154l51 79q4 -6 11.5 -16.5t36 -37t63.5 -46.5t95.5 -36.5t129.5 -16.5q130 0 203.5 74.5t73.5 185.5q0 69 -33 120.5t-86.5 82.5t-117.5 57.5t-128 57t-117.5 69t-86.5 103.5t-33 153q0 168 106 267.5t285 99.5q56 0 109 -12t88.5 -29t63.5 -33.5t41 -28.5l13 -12 l-20 -90q-5 4 -13.5 11.5t-37.5 26.5t-60 33.5t-79 26.5t-97 12q-114 0 -180 -63t-66 -172q0 -62 26 -109t68 -75.5t96.5 -55.5t110.5 -47.5t110.5 -52.5t96.5 -70t68 -101t26 -144q0 -170 -116 -277.5t-308 -107.5q-84 0 -155.5 18t-113.5 43.5t-71.5 51t-40.5 43.5z" />
<glyph unicode="T" horiz-adv-x="944" d="M14 1233v98h916v-98h-381v-1233h-156v1233h-379z" />
<glyph unicode="U" horiz-adv-x="1269" d="M176 434v897h154v-862q0 -186 82 -285.5t239 -99.5q163 0 246.5 101t83.5 284v862h113v-897q0 -208 -114.5 -331t-344.5 -123q-224 0 -341.5 123t-117.5 331z" />
<glyph unicode="V" horiz-adv-x="1122" d="M31 1331h162l387 -1216l393 1216h114l-442 -1331h-180z" />
<glyph unicode="W" horiz-adv-x="1736" d="M31 1331h164l303 -1153l325 1153h138l331 -1151l295 1151h115l-359 -1331h-143l-332 1135l-327 -1135h-144z" />
<glyph unicode="X" horiz-adv-x="1107" d="M37 0l426 662l-410 669h189l329 -557l344 557h129l-407 -645l434 -686h-190l-351 571h-2l-354 -571h-137z" />
<glyph unicode="Y" horiz-adv-x="1038" d="M4 1331h174l367 -655l364 655h125l-434 -770v-561h-156v551z" />
<glyph unicode="Z" horiz-adv-x="1079" d="M82 0v82l721 1151h-703v98h893v-84l-723 -1149h723v-98h-911z" />
<glyph unicode="[" horiz-adv-x="684" d="M180 -156v1592h482v-90h-351v-1409h351v-93h-482z" />
<glyph unicode="\" horiz-adv-x="854" d="M-29 1536h113l768 -2048h-113z" />
<glyph unicode="]" horiz-adv-x="684" d="M23 -63h350v1409h-350v90h483v-1592h-483v93z" />
<glyph unicode="^" horiz-adv-x="688" d="M70 1065l272 342l276 -342l-51 -53l-223 264l-227 -264z" />
<glyph unicode="_" horiz-adv-x="1277" d="M70 -203h1138v-96h-1138v96z" />
<glyph unicode="`" horiz-adv-x="423" d="M-20 1450l126 33l170 -293l-81 -16z" />
<glyph unicode="a" horiz-adv-x="976" d="M66 231q0 300 579 363v108q0 145 -47.5 198.5t-165.5 53.5q-53 0 -115.5 -22t-98.5 -44l-36 -22l-16 84q6 4 16 10t42 22.5t64.5 29t78.5 22.5t88 10q176 0 258 -74t82 -259v-502q0 -44 4.5 -73.5t13 -42.5t16.5 -18t19 -5q14 0 34 4.5t33 9.5l13 4l6 -70 q-101 -38 -160 -38q-54 0 -82.5 33.5t-34.5 119.5h-2q-3 -6 -9 -16.5t-30.5 -37t-54.5 -46.5t-82.5 -36.5t-113.5 -16.5q-135 0 -217 66t-82 185zM219 250q0 -88 51.5 -134t139.5 -46q47 0 88.5 15.5t67 37.5t44.5 43.5t27 37.5l8 15v299q-68 -8 -122.5 -18.5t-113.5 -31 t-98.5 -48.5t-65.5 -71.5t-26 -98.5z" />
<glyph unicode="b" horiz-adv-x="1056" d="M154 0v1532l149 8v-633h2q3 6 8.5 15.5t27.5 33.5t50.5 42.5t78 33.5t108.5 15q183 0 293 -134t110 -372q0 -259 -109 -411.5t-313 -152.5q-175 0 -270 103l-29 -80h-106zM303 168q5 -8 18 -20.5t38 -30t68 -29.5t93 -12q158 0 230.5 115.5t72.5 345.5q0 213 -73 312 t-215 99q-56 0 -102.5 -20t-73.5 -49.5t-39 -47.5t-17 -30v-633z" />
<glyph unicode="c" horiz-adv-x="866" d="M76 502q0 262 113.5 402t332.5 140q71 0 143 -22t108 -44l36 -22l-18 -84q-13 9 -36 22.5t-89.5 36.5t-126.5 23q-158 0 -232 -104t-74 -346q0 -233 77.5 -333.5t219.5 -100.5q50 0 94.5 13t72.5 32t48.5 37.5t29.5 31.5l9 13l66 -43q-3 -7 -10 -19t-35 -42t-62 -52.5 t-94.5 -41.5t-130.5 -19q-213 0 -327.5 130.5t-114.5 391.5z" />
<glyph unicode="d" horiz-adv-x="1056" d="M76 483q0 257 109.5 409t308.5 152q53 0 99 -10t74 -24.5t49 -29t30 -24.5l8 -10h2v586l147 8v-1540h-127l-16 121q-6 -12 -16 -26t-33 -35.5t-51.5 -38.5t-74 -29t-98.5 -12q-187 0 -299 133t-112 370zM233 487q0 -214 73.5 -310.5t213.5 -96.5q47 0 88.5 14.5t67.5 36 t45 42.5t27 35l8 15v629q-3 4 -8.5 10t-26 22.5t-43.5 29t-60.5 22.5t-78.5 10q-157 0 -231.5 -115.5t-74.5 -343.5z" />
<glyph unicode="e" horiz-adv-x="927" d="M76 492q0 259 112 405.5t308 146.5q175 0 270.5 -121t95.5 -345q0 -28 -2.5 -52t-5.5 -34l-2 -9h-621q0 -413 299 -413q51 0 97 13.5t75.5 33t51.5 39.5t32 34l9 13l59 -49q-4 -7 -11.5 -19t-37 -42t-64.5 -52.5t-96.5 -41.5t-130.5 -19q-205 0 -321.5 128t-116.5 384z M233 569h490q2 21 2 39q0 348 -229 348q-242 0 -263 -387z" />
<glyph unicode="f" horiz-adv-x="641" d="M88 924v86l107 12v147q0 198 61.5 291.5t206.5 93.5q49 0 97.5 -15t72.5 -29l24 -15l-20 -80q-70 47 -148 47q-54 0 -85 -26.5t-46.5 -94t-15.5 -188.5v-129h297v-100h-297v-924h-147v924h-107z" />
<glyph unicode="g" horiz-adv-x="923" d="M41 -199q0 107 48 173t122 96q-37 43 -37 120q0 100 94 172q-83 42 -127.5 124t-44.5 196q0 96 30 168t83.5 113.5t119 61t144.5 19.5q80 0 141 -20h2l263 -2v-80l-131 -4q81 -91 81 -256q0 -177 -95.5 -271t-262.5 -94q-67 0 -125 15q-72 -46 -72 -107q0 -55 45 -76.5 t146 -21.5q448 0 448 -315q0 -167 -111 -255.5t-319 -88.5q-217 0 -329.5 84.5t-112.5 248.5zM158 -197q0 -123 84.5 -183t240.5 -60q144 0 221.5 58t77.5 169q0 215 -333 215q-97 0 -154 16q-61 -26 -99 -79.5t-38 -135.5zM240 682q0 -139 59 -211t168 -72q217 0 217 285 q0 148 -57 210t-162 62q-50 0 -88.5 -12.5t-70.5 -42.5t-49 -85t-17 -134z" />
<glyph unicode="h" horiz-adv-x="1048" d="M152 0v1532l149 8v-608h2l6 6q6 6 17.5 16t28 22t41 24t53 22t67 16t80.5 6q149 0 230 -82.5t81 -246.5v-715h-147v696q0 240 -213 240q-47 0 -89.5 -10.5t-70 -25.5t-48 -30t-29.5 -26l-9 -10v-834h-149z" />
<glyph unicode="i" horiz-adv-x="454" d="M141 1319q0 38 27 65q23 23 59 23q38 0 62 -21q24 -27 24 -67q0 -39 -24 -66q-28 -22 -62 -22q-37 0 -59 22q-27 27 -27 66zM152 0v1024h149v-1024h-149z" />
<glyph unicode="j" horiz-adv-x="491" d="M-100 -487l28 84q40 -33 103 -33q80 0 118.5 82t38.5 270v1108h150v-1108q0 -448 -289 -448q-48 0 -85.5 11t-50.5 23zM178 1319q0 38 27 65q23 23 59 23q38 0 62 -21q24 -27 24 -67q0 -39 -24 -66q-28 -22 -62 -22q-37 0 -59 22q-27 27 -27 66z" />
<glyph unicode="k" horiz-adv-x="933" d="M152 0v1532l149 8v-985l125 86l305 383h113l-338 -420l381 -604h-170l-326 516l-90 -55v-461h-149z" />
<glyph unicode="l" horiz-adv-x="456" d="M154 0v1532l147 8v-1540h-147z" />
<glyph unicode="m" horiz-adv-x="1484" d="M154 0v1024h122l19 -109q12 14 28 28t53.5 41t92 43.5t115.5 16.5q85 0 137 -29.5t78 -94.5q11 14 31.5 31t57.5 40t92.5 38t117.5 15q129 0 188.5 -67t59.5 -225v-752h-150v735q0 118 -37 160.5t-117 42.5q-46 0 -87 -13.5t-68.5 -35t-43 -36.5t-24.5 -28q4 -46 4 -71 v-754h-149v735q0 117 -36 160t-114 43q-60 0 -114 -26t-76 -47.5t-33 -37.5v-827h-147z" />
<glyph unicode="n" horiz-adv-x="1048" d="M154 0v1024h122l19 -98q101 118 303 118q148 0 229.5 -82.5t81.5 -246.5v-715h-149v684q0 132 -53.5 192t-157.5 60q-47 0 -90 -10.5t-70.5 -25.5t-48.5 -30t-30 -26l-9 -10v-834h-147z" />
<glyph unicode="o" horiz-adv-x="1026" d="M76 512q0 254 111.5 393t324.5 139t324.5 -139t111.5 -393q0 -252 -114 -392t-322 -140q-213 0 -324.5 139t-111.5 393zM233 512q0 -223 67.5 -332.5t211.5 -109.5q143 0 211 109.5t68 332.5q0 222 -68 332t-211 110q-144 0 -211.5 -109.5t-67.5 -332.5z" />
<glyph unicode="p" horiz-adv-x="1056" d="M154 -516v1540h122l19 -123q9 15 25.5 33t51 46t91 46t123.5 18q181 0 288 -132.5t107 -370.5q0 -257 -108.5 -409t-307.5 -152q-53 0 -99 10t-74.5 24.5t-50 29t-29.5 24.5l-9 10h-2v-590zM301 168q8 -9 20 -19.5t38.5 -29t68 -30t88.5 -11.5q159 0 233 114t74 345 q0 215 -73 311t-213 96q-47 0 -88.5 -14.5t-67.5 -35t-45 -40.5t-27 -34l-8 -15v-637z" />
<glyph unicode="q" horiz-adv-x="1056" d="M78 483q0 256 112 408.5t312 152.5q166 0 260 -94l35 74h106v-1536l-149 -4v639h-2q-3 -6 -8.5 -15.5t-27.5 -34t-50 -43.5t-77.5 -34.5t-107.5 -15.5q-183 0 -293 132.5t-110 370.5zM233 487q0 -111 20.5 -191t59.5 -126.5t91.5 -68t121.5 -21.5q48 0 89 14.5t65.5 35 t42 40.5t24.5 34l7 15v639q-78 88 -211 88q-157 0 -233.5 -113t-76.5 -346z" />
<glyph unicode="r" horiz-adv-x="673" d="M152 0v1024h110l23 -211q2 9 6.5 25t22 55.5t40.5 70t64 55.5t90 25q28 0 66 -8t62 -16l23 -8l-14 -113q-90 31 -153 31q-46 0 -84.5 -26.5t-60.5 -64.5t-32.5 -63t-13.5 -39v-737h-149z" />
<glyph unicode="s" horiz-adv-x="835" d="M74 131l51 72q3 -5 10 -14t31 -32t51 -40.5t72 -32t94 -14.5q114 0 172.5 57t58.5 139q0 55 -27.5 94.5t-71 61.5t-96.5 40.5t-106.5 40.5t-97 51t-71 81.5t-27.5 124.5q0 130 95 207t245 77q67 0 134.5 -20t101.5 -40l34 -19l-25 -88q-12 9 -33.5 22.5t-82.5 36 t-117 22.5q-95 0 -153 -46.5t-58 -118.5q0 -49 22 -86t58 -58.5t82 -41.5t94 -35t94 -39t82 -52.5t58 -77.5t22 -112t-21.5 -118t-64.5 -98.5t-114 -69t-162 -25.5q-69 0 -128.5 15.5t-95.5 37.5t-62.5 44.5t-37.5 38.5z" />
<glyph unicode="t" horiz-adv-x="667" d="M82 924v86l106 12l56 326h94v-324h262v-100h-262v-613q0 -132 25.5 -182.5t89.5 -50.5q36 0 69.5 5.5t48.5 10.5l15 6l10 -82q-6 -4 -19.5 -10.5t-62.5 -17t-108 -10.5q-112 0 -165 68t-53 226v650h-106z" />
<glyph unicode="u" horiz-adv-x="1048" d="M139 309v715h150v-684q0 -252 213 -252q46 0 88 11t69 26t47.5 30.5t29.5 26.5l9 11v831h150v-1024h-125l-20 98q-9 -12 -25 -26t-51 -38t-93 -39t-128 -15q-150 0 -232 82.5t-82 246.5z" />
<glyph unicode="v" horiz-adv-x="890" d="M27 1024h176l266 -862l283 862h112l-352 -1024h-135z" />
<glyph unicode="w" horiz-adv-x="1345" d="M29 1024h166l192 -836l244 836h117l256 -836l200 836h115l-277 -1024h-131l-239 825l-242 -825h-133z" />
<glyph unicode="x" horiz-adv-x="907" d="M25 0l340 510l-324 514h176l252 -428l264 428h121l-317 -489l344 -535h-174l-275 442l-285 -442h-122z" />
<glyph unicode="y" horiz-adv-x="919" d="M31 1024h176l303 -856l274 856h109l-354 -1040q-33 -95 -60 -162t-64.5 -139t-74 -115.5t-84 -71.5t-100.5 -28q-36 0 -67 6.5t-43 13.5l-13 6l16 94q39 -18 84 -18q41 0 77 22t63.5 55t57 92t50.5 112t51 137z" />
<glyph unicode="z" horiz-adv-x="849" d="M72 0v82l524 850h-479l-6 92h657v-82l-520 -850h516l4 -92h-696z" />
<glyph unicode="{" horiz-adv-x="768" d="M201 549v98q63 0 126.5 52.5t63.5 129.5q0 61 -27.5 201t-27.5 213q0 70 17 120.5t56.5 90t111 59t175.5 19.5v-88q-126 0 -179.5 -53.5t-53.5 -157.5q0 -66 27.5 -209t27.5 -211q0 -73 -43.5 -129t-116.5 -86q73 -30 116.5 -86t43.5 -129q0 -68 -27.5 -211t-27.5 -209 q0 -104 53.5 -157.5t179.5 -53.5v-88q-104 0 -175.5 19.5t-111 59t-56.5 90t-17 120.5q0 73 27.5 213t27.5 201q0 77 -63.5 129.5t-126.5 52.5z" />
<glyph unicode="|" horiz-adv-x="598" d="M248 -512v2048h102v-2048h-102z" />
<glyph unicode="}" horiz-adv-x="768" d="M123 -248q125 0 178 53.5t53 157.5q0 66 -27.5 209t-27.5 211q0 73 43 129t115 86q-72 30 -115 86t-43 129q0 68 27.5 211t27.5 209q0 104 -53 157.5t-178 53.5v88q104 0 175.5 -19.5t111 -59t56.5 -90t17 -120.5q0 -73 -28.5 -213t-28.5 -201q0 -77 64.5 -129.5 t127.5 -52.5v-98q-63 0 -127.5 -52.5t-64.5 -129.5q0 -61 28.5 -201t28.5 -213q0 -70 -17 -120.5t-56.5 -90t-111 -59t-175.5 -19.5v88z" />
<glyph unicode="~" horiz-adv-x="1173" d="M63 662q2 9 7.5 23.5t27.5 52t51.5 66t83.5 52t119 23.5q72 0 135 -22t109 -53.5t89 -62.5t96 -53t110 -22q37 0 67.5 10.5t48 25t29 29t15.5 25.5l4 10l57 -39q-2 -8 -6.5 -22t-24.5 -50t-46.5 -63t-75.5 -49.5t-109 -22.5q-67 0 -126 22t-103.5 53t-88 62.5t-99 53.5 t-116.5 22q-41 0 -75.5 -12t-55 -28.5t-35.5 -33.5t-21 -29l-5 -12z" />
<glyph unicode="&#xa1;" horiz-adv-x="565" d="M186 946q0 44 29 70q27 24 64 24q38 0 65 -24q27 -27 27 -70q0 -42 -27 -69q-28 -25 -65 -25q-36 0 -64 25q-29 26 -29 69zM197 -342l39 932h90l36 -932v-170h-165v170z" />
<glyph unicode="&#xa2;" horiz-adv-x="866" d="M76 639q0 239 95 377.5t280 161.5l8 256h86l12 -254q40 -3 80.5 -13t70 -22t53.5 -23.5t36 -19.5l12 -8l-18 -84q-13 9 -36 22.5t-89.5 36.5t-126.5 23q-158 0 -232 -104.5t-74 -346.5q0 -233 77.5 -333.5t219.5 -100.5q50 0 94.5 13t72.5 31.5t48.5 37.5t29.5 32l9 13 l66 -43q-3 -6 -9.5 -17t-31 -38.5t-54.5 -50t-83.5 -43t-114.5 -25.5l-6 -219h-86l-12 223q-183 19 -280 148t-97 370z" />
<glyph unicode="&#xa3;" horiz-adv-x="1040" d="M94 0v137h78q66 47 92.5 121.5t26.5 181.5q0 68 -6 138l-191 6v88h180q-22 224 -22 317q0 173 93.5 267t266.5 94q55 0 120 -19t102 -38l38 -19l-24 -88q-13 7 -34.5 18t-76 29t-94.5 18q-115 0 -170 -63.5t-55 -206.5q0 -113 4 -309h457v-97h-457q-3 -152 -26 -260 t-79 -178h678v-137h-901z" />
<glyph unicode="&#xa4;" horiz-adv-x="1105" d="M102 1104l58 76l192 -248q85 82 203 82q111 0 197 -76l194 240l55 -76l-206 -215q71 -99 71 -244q0 -144 -69 -242l207 -219l-56 -76l-192 246q-83 -80 -201 -80q-117 0 -201 78l-192 -241l-58 75l207 217q-67 95 -67 242q0 140 65 240zM330 645q0 -130 61.5 -206.5 t163.5 -76.5q100 0 161.5 76t61.5 205q0 130 -61.5 205.5t-161.5 75.5q-102 0 -163.5 -75t-61.5 -204z" />
<glyph unicode="&#xa5;" horiz-adv-x="1153" d="M59 1331h174l367 -655l365 655h125l-381 -676h227v-82h-274l-7 -12v-182h281v-82h-281v-297h-155v297h-301v82h301v172l-13 22h-288v82h241z" />
<glyph unicode="&#xa6;" horiz-adv-x="598" d="M248 307h102v-819h-102v819zM248 717v819h102v-819h-102z" />
<glyph unicode="&#xa7;" horiz-adv-x="995" d="M137 631q0 168 131 248q-61 64 -61 165q0 63 21.5 117.5t64 97t111.5 67t157 24.5q43 0 87.5 -10t77 -24t59 -28.5t39.5 -24.5l14 -10l-17 -82q-5 4 -13.5 10t-35 21t-53.5 27t-65 21.5t-72 9.5q-120 0 -175 -59.5t-55 -139.5q0 -45 19.5 -80t52 -58.5t74.5 -42.5 t89 -35.5t93.5 -34.5t88.5 -42.5t74.5 -55.5t52 -78t19.5 -106q0 -164 -143 -254q57 -67 57 -161q0 -129 -93.5 -212t-278.5 -83q-61 0 -115 10.5t-87.5 25t-58.5 29t-36 25.5l-10 10l34 82q3 -4 9.5 -10t30 -22t50.5 -28t71.5 -22t92.5 -10q130 0 188 54t58 136 q0 55 -30 95t-78.5 64.5t-106.5 45.5t-116.5 46t-107 58.5t-78.5 90.5t-30 133zM242 659q0 -61 31.5 -105t86.5 -72t113 -48.5t128 -48.5t114 -59q96 58 96 178q0 57 -32 98.5t-88.5 69t-115.5 48.5t-130.5 49t-116.5 58q-86 -50 -86 -168z" />
<glyph unicode="&#xa8;" horiz-adv-x="768" d="M78 1319q0 39 22 61q28 21 56 21q25 0 53 -21q22 -25 22 -61q0 -34 -22 -59q-28 -21 -53 -21q-28 0 -56 21q-22 22 -22 59zM393 1319q0 38 23 61q28 21 53 21t53 -21q25 -25 25 -61q0 -34 -25 -59q-28 -21 -53 -21t-53 21q-23 23 -23 59z" />
<glyph unicode="&#xa9;" horiz-adv-x="1492" d="M150 662q0 321 158 508.5t435 187.5q279 0 437.5 -187t158.5 -509t-157.5 -506.5t-438.5 -184.5q-280 0 -436.5 184.5t-156.5 506.5zM231 659q0 -290 136 -452t374 -162q241 0 380 162t139 452q0 292 -139.5 458.5t-379.5 166.5q-237 0 -373.5 -166.5t-136.5 -458.5z M449 649q0 171 89 270t234 99q54 0 102.5 -18t70.5 -36l22 -18l-21 -63q-8 7 -22 18t-56.5 29t-85.5 18q-107 0 -166 -75.5t-59 -223.5q0 -142 63 -216.5t164 -74.5q36 0 68 11t51.5 27t33.5 31.5t20 26.5l6 11l38 -43q-2 -5 -6.5 -14.5t-23 -32.5t-42.5 -41t-68 -32.5 t-97 -14.5q-134 0 -224.5 97t-90.5 265z" />
<glyph unicode="&#xaa;" horiz-adv-x="796" d="M68 842q0 231 460 264v35q0 95 -39 138.5t-127 43.5q-58 0 -109 -21t-73 -42l-22 -21l-33 49q3 4 8.5 11t27.5 25.5t49 32t74 25t101 11.5q141 0 209 -64t68 -199v-475h-105l-27 109q-5 -16 -17 -33.5t-36.5 -41t-69 -39t-100.5 -15.5q-117 0 -178 54t-61 153zM199 854 q0 -143 161 -143q35 0 64.5 11.5t46 24.5t31 34.5t17.5 29t8 21.5q1 1 1 2v213q-70 -7 -122 -17.5t-102.5 -31.5t-77.5 -57t-27 -87z" />
<glyph unicode="&#xab;" horiz-adv-x="991" d="M170 512l317 350l45 -53l-221 -299l221 -303l-47 -55zM502 512l317 350l45 -53l-221 -299l221 -303l-47 -55z" />
<glyph unicode="&#xac;" horiz-adv-x="915" d="M109 604v94h694v-436h-88v342h-606z" />
<glyph unicode="&#xad;" horiz-adv-x="634" d="M82 520v96h469v-96h-469z" />
<glyph unicode="&#xae;" horiz-adv-x="1263" d="M106 928q0 284 141.5 453t383.5 169t384 -169t142 -453q0 -285 -139 -453t-387 -168q-247 0 -386 168t-139 453zM186 926q0 -255 117 -400t328 -145q210 0 328 145.5t118 399.5q0 257 -118.5 406t-327.5 149q-210 0 -327.5 -150t-117.5 -405zM463 602v649h170 q231 0 231 -184q0 -148 -141 -190l135 -275h-88l-129 262h-98v-262h-80zM543 915h90q65 0 104 35.5t39 116.5q0 68 -35 98.5t-108 30.5h-90v-281z" />
<glyph unicode="&#xaf;" horiz-adv-x="808" d="M213 1303v73h381v-73h-381z" />
<glyph unicode="&#xb0;" horiz-adv-x="837" d="M98 1174q0 176 86 281.5t236 105.5q147 0 234 -106.5t87 -280.5q0 -176 -85.5 -281t-235.5 -105q-154 0 -238 104.5t-84 281.5zM221 1176q0 -145 51 -223.5t146 -78.5t147.5 78.5t52.5 223.5t-51.5 222t-146.5 77q-97 0 -148 -76.5t-51 -222.5z" />
<glyph unicode="&#xb1;" horiz-adv-x="962" d="M70 309v97h823v-97h-823zM135 1028v96h305v357h90v-357h299v-96h-299v-356h-90v356h-305z" />
<glyph unicode="&#xb2;" horiz-adv-x="772" d="M84 471v113q19 8 67 49t109.5 110t118 148t95 172.5t38.5 173.5q0 117 -43 172t-145 55q-39 0 -89.5 -21.5t-80.5 -42.5l-31 -22l-17 80q14 11 38 26.5t90.5 41.5t123.5 26q153 0 227 -83t74 -222q0 -73 -31 -153.5t-75.5 -147.5t-107 -136.5t-113 -116.5t-105.5 -93h455 v-129h-598z" />
<glyph unicode="&#xb3;" horiz-adv-x="770" d="M82 549l39 72q1 -2 8.5 -9.5t24.5 -20t39 -23.5t56.5 -19t72.5 -8q102 0 160.5 62.5t58.5 178.5q0 105 -41.5 162t-118.5 57q-50 0 -86 -36l-2 -2l-49 55l276 389h-389l8 129h506v-88l-270 -371q5 0 16 1t17 1q119 0 194.5 -82.5t75.5 -218.5q0 -154 -96 -239.5 t-242 -85.5q-53 0 -99 10t-74 24t-48.5 28t-28.5 24z" />
<glyph unicode="&#xb4;" horiz-adv-x="423" d="M115 1180l157 297l129 -31l-208 -277z" />
<glyph unicode="&#xb5;" horiz-adv-x="1060" d="M152 309v715h149v-684q0 -252 213 -252q46 0 88 11t69 26t48 30.5t30 26.5l9 11v831h149v-1024h-125l-20 98q-9 -12 -25 -26t-51 -38t-93 -39t-128 -15q-102 0 -170 36q10 -293 10 -528h-151v772q-2 16 -2 49z" />
<glyph unicode="&#xb6;" horiz-adv-x="1222" d="M98 922q0 205 120 307t376 102h532v-112h-118v-1219h-125v1219h-195v-1219h-123v500q-232 0 -349.5 100t-117.5 322z" />
<glyph unicode="&#xb7;" horiz-adv-x="497" d="M154 690q0 45 28 70q27 24 64 24q38 0 65 -24q27 -27 27 -70q0 -42 -27 -69q-28 -25 -65 -25q-36 0 -64 25t-28 69z" />
<glyph unicode="&#xb8;" horiz-adv-x="479" d="M51 -428l37 41q5 -7 15 -18t45.5 -29.5t76.5 -18.5q135 0 135 140q0 34 -17.5 58.5t-43 35.5t-51 17t-43 9t-17.5 5l25 182h57l-14 -135q0 -2 20.5 -6.5t49 -14.5t57.5 -27t49.5 -50.5t20.5 -77.5q0 -91 -54.5 -144t-158.5 -53q-38 0 -72 9t-54.5 21.5t-35.5 25t-21 21.5 z" />
<glyph unicode="&#xb9;" horiz-adv-x="770" d="M143 1380l242 156h111v-1065h-136v942l-182 -119z" />
<glyph unicode="&#xba;" horiz-adv-x="858" d="M76 1014q0 179 88.5 279t263.5 100t263.5 -100t88.5 -279q0 -178 -90.5 -278.5t-261.5 -100.5q-175 0 -263.5 100t-88.5 279zM215 1014q0 -312 213 -312t213 312q0 307 -213 307t-213 -307z" />
<glyph unicode="&#xbb;" horiz-adv-x="991" d="M125 205l221 297l-219 305l47 55l313 -362l-315 -348zM457 205l221 297l-219 305l47 55l313 -362l-315 -348z" />
<glyph unicode="&#xbc;" horiz-adv-x="1488" d="M143 1380l242 156h111v-1065h-136v942l-182 -119zM449 41l620 1151l72 -43l-621 -1149zM731 -172q58 127 118 331t103 410l129 -16q-42 -189 -109 -377.5t-138 -333.5h307v334l33 221h106v-555h100v-73l-100 -13v-268h-139v268h-400z" />
<glyph unicode="&#xbd;" horiz-adv-x="1609" d="M143 1380l242 156h111v-1065h-136v942l-182 -119zM449 41l620 1151l72 -43l-621 -1149zM881 -399q19 8 67 49t109.5 110t118 148t95 172.5t38.5 173.5q0 117 -44 171t-147 54q-38 0 -87.5 -21t-80.5 -42l-30 -21l-19 80q14 11 38.5 26.5t91.5 41.5t124 26 q152 0 226.5 -84t74.5 -221q0 -73 -30.5 -153.5t-75 -147.5t-106.5 -136.5t-112.5 -117t-105.5 -92.5h451v-129h-596v113z" />
<glyph unicode="&#xbe;" horiz-adv-x="1587" d="M84 549l39 72q1 -2 8.5 -9.5t24.5 -20t39 -23.5t56.5 -19t72.5 -8q102 0 160.5 62.5t58.5 178.5q0 105 -41.5 162t-118.5 57q-50 0 -86 -36l-2 -2l-49 55l276 389h-389l8 129h506v-88l-270 -371q5 0 16 1t17 1q119 0 194.5 -82.5t75.5 -218.5q0 -154 -96 -239.5 t-242 -85.5q-53 0 -99 10t-74 24t-48.5 28t-28.5 24zM545 41l620 1151l72 -43l-621 -1149zM829 -172q58 128 118.5 332.5t103.5 408.5l129 -16q-82 -370 -248 -711h307v334l33 221h106v-555h101v-73l-101 -13v-268h-139v268h-399z" />
<glyph unicode="&#xbf;" horiz-adv-x="841" d="M76 -190q0 84 24 148.5t63 105.5t85.5 76l93 70t85.5 76t63 106t24 149q0 7 -1 21.5t-1 21.5l70 6q10 -72 10 -113q0 -75 -19 -133.5t-50 -95.5t-68 -68.5t-74 -62.5t-68 -67t-50 -92t-19 -128q0 -125 56.5 -196.5t195.5 -71.5q52 0 100.5 11t71.5 23l22 11l37 -84 q-9 -6 -27.5 -15t-82.5 -24.5t-136 -15.5q-89 0 -160 20t-116 53.5t-75 78.5t-42 92t-12 98zM449 946q0 45 28 70q27 24 64 24q38 0 65 -24q27 -27 27 -70q0 -42 -27 -69q-28 -25 -65 -25q-36 0 -64 25t-28 69z" />
<glyph unicode="&#xc0;" horiz-adv-x="1163" d="M47 0l449 1331h182l440 -1331h-162l-139 410h-522l-139 -410h-109zM324 494h467l-232 718zM358 1726l127 33l170 -293l-82 -16z" />
<glyph unicode="&#xc1;" horiz-adv-x="1163" d="M47 0l449 1331h182l440 -1331h-162l-139 410h-522l-139 -410h-109zM324 494h467l-232 718zM522 1456l158 297l129 -31l-209 -276z" />
<glyph unicode="&#xc2;" horiz-adv-x="1163" d="M47 0l449 1331h182l440 -1331h-162l-139 410h-522l-139 -410h-109zM317 1565l226 233h80l221 -233l-37 -66l-225 199l-226 -199zM324 494h467l-232 718z" />
<glyph unicode="&#xc3;" horiz-adv-x="1163" d="M47 0l449 1331h182l440 -1331h-162l-139 410h-522l-139 -410h-109zM266 1561q3 5 8 14t23 31t39 39t55.5 31t71.5 14q43 0 88 -15t77 -32.5t72 -32.5t74 -15q33 0 59 14t36 28l10 14l47 -52q-2 -4 -6 -11t-19 -25t-33 -32t-49 -25t-67 -11q-51 0 -106.5 23.5t-109.5 47 t-100 23.5q-36 0 -66.5 -20t-43.5 -40l-13 -20zM324 494h467l-232 718z" />
<glyph unicode="&#xc4;" horiz-adv-x="1163" d="M47 0l449 1331h182l440 -1331h-162l-139 410h-522l-139 -410h-109zM324 494h467l-232 718zM352 1595q0 39 23 62q27 20 55 20q26 0 53 -20q23 -26 23 -62q0 -33 -23 -59q-27 -20 -53 -20q-28 0 -55 20q-23 23 -23 59zM668 1595q0 40 22 62q27 20 53 20q27 0 54 -20 q24 -24 24 -62q0 -35 -24 -59q-27 -20 -54 -20q-26 0 -53 20q-22 22 -22 59z" />
<glyph unicode="&#xc5;" horiz-adv-x="1163" d="M47 0l449 1331h182l440 -1331h-162l-139 410h-522l-139 -410h-109zM324 494h467l-232 718zM399 1595q0 91 51.5 142t131.5 51q78 0 130 -51.5t52 -141.5q0 -92 -50.5 -141t-131.5 -49q-83 0 -133 49t-50 141zM457 1595q0 -69 34.5 -103t90.5 -34t89.5 34t33.5 103 t-34.5 103.5t-88.5 34.5q-55 0 -90 -35t-35 -103z" />
<glyph unicode="&#xc6;" horiz-adv-x="1615" d="M-25 0l760 1331h764v-98h-563v-512h514v-94h-514v-529h606v-98h-762v420h-450l-238 -420h-117zM375 504h405v729h-8z" />
<glyph unicode="&#xc7;" horiz-adv-x="1167" d="M98 653q0 319 156 508t418 189q59 0 121 -11.5t108.5 -28t84 -33.5t57.5 -29l20 -11l-19 -98q-7 4 -20 11.5t-53 26t-80 33t-96.5 26t-106.5 11.5q-199 0 -311.5 -150.5t-112.5 -439.5q0 -285 115 -430t321 -145q69 0 132.5 20.5t104.5 50t72.5 59.5t45.5 50l14 21 l57 -66q-5 -10 -15.5 -25.5t-50 -56.5t-86 -72t-124.5 -56.5t-166 -26.5l-12 -121q0 -2 14.5 -5.5t36.5 -9t47 -18t47 -29.5t36.5 -47t14.5 -67q0 -91 -54.5 -144t-158.5 -53q-38 0 -71.5 9t-54 21.5t-35.5 25t-21 21.5l-6 9l37 41q5 -7 15 -18t45.5 -29.5t76.5 -18.5 q135 0 135 140q0 34 -17.5 58.5t-43 35.5t-51 17t-43 9t-17.5 5l23 170q-252 19 -390.5 195t-138.5 476z" />
<glyph unicode="&#xc8;" horiz-adv-x="1038" d="M193 0v1331h716v-98h-561v-512h514v-94h-514v-529h606v-98h-761zM344 1726l127 33l170 -293l-82 -16z" />
<glyph unicode="&#xc9;" horiz-adv-x="1038" d="M193 0v1331h716v-98h-561v-512h514v-94h-514v-529h606v-98h-761zM508 1456l158 297l129 -31l-209 -276z" />
<glyph unicode="&#xca;" horiz-adv-x="1038" d="M193 0v1331h716v-98h-561v-512h514v-94h-514v-529h606v-98h-761zM311 1565l226 233h79l222 -233l-37 -66l-226 199l-225 -199z" />
<glyph unicode="&#xcb;" horiz-adv-x="1038" d="M193 0v1331h716v-98h-561v-512h514v-94h-514v-529h606v-98h-761zM313 1595q0 39 23 62q27 20 53 20q28 0 55 -20q23 -26 23 -62q0 -33 -23 -59q-27 -20 -55 -20q-26 0 -53 20q-23 23 -23 59zM629 1595q0 40 22 62q27 20 54 20q26 0 53 -20q24 -24 24 -62q0 -35 -24 -59 q-27 -20 -53 -20q-27 0 -54 20q-22 22 -22 59z" />
<glyph unicode="&#xcc;" horiz-adv-x="542" d="M39 1726l127 33l170 -293l-82 -16zM193 0v1331h155v-1331h-155z" />
<glyph unicode="&#xcd;" horiz-adv-x="542" d="M193 0v1331h155v-1331h-155zM203 1456l157 297l129 -31l-208 -276z" />
<glyph unicode="&#xce;" horiz-adv-x="542" d="M4 1565l225 233h80l221 -233l-36 -66l-226 199l-225 -199zM193 0v1331h155v-1331h-155z" />
<glyph unicode="&#xcf;" horiz-adv-x="542" d="M33 1595q0 40 22 62q27 20 56 20q26 0 53 -20q22 -25 22 -62q0 -34 -22 -59q-27 -20 -53 -20q-29 0 -56 20q-22 22 -22 59zM193 0v1331h155v-1331h-155zM348 1595q0 39 23 62q27 20 53 20t53 -20q25 -25 25 -62q0 -34 -25 -59q-27 -20 -53 -20t-53 20q-23 23 -23 59z" />
<glyph unicode="&#xd0;" horiz-adv-x="1306" d="M51 618v87h142v626h405q287 0 445.5 -172.5t158.5 -496.5q0 -322 -157 -492t-447 -170h-405v618h-142zM348 98h252q434 0 434 564q0 571 -436 571h-250v-528h387v-87h-387v-520z" />
<glyph unicode="&#xd1;" horiz-adv-x="1333" d="M193 0v1331h161l680 -1098l-6 50v1048h113v-1331h-135l-709 1135h-2l10 -64v-1071h-112zM354 1561q3 5 8 14t23 31t39 39t55.5 31t71.5 14q43 0 88 -15t77 -32.5t72 -32.5t74 -15q33 0 59 14t36 28l10 14l47 -52q-2 -4 -6 -11t-19 -25t-33 -32t-49 -25t-67 -11 q-51 0 -106.5 23.5t-109.5 47t-100 23.5q-36 0 -66.5 -20t-43.5 -40l-13 -20z" />
<glyph unicode="&#xd2;" d="M98 664q0 318 151.5 502t418.5 184q269 0 421 -184t152 -502q0 -319 -152 -501.5t-421 -182.5q-268 0 -419 182.5t-151 501.5zM264 664q0 -286 104 -436t300 -150q197 0 302 150t105 436q0 285 -105.5 436t-301.5 151q-194 0 -299 -151t-105 -436zM436 1726l127 33 l170 -293l-82 -16z" />
<glyph unicode="&#xd3;" d="M98 664q0 318 151.5 502t418.5 184q269 0 421 -184t152 -502q0 -319 -152 -501.5t-421 -182.5q-268 0 -419 182.5t-151 501.5zM264 664q0 -286 104 -436t300 -150q197 0 302 150t105 436q0 285 -105.5 436t-301.5 151q-194 0 -299 -151t-105 -436zM600 1456l158 297 l129 -31l-209 -276z" />
<glyph unicode="&#xd4;" d="M98 664q0 318 151.5 502t418.5 184q269 0 421 -184t152 -502q0 -319 -152 -501.5t-421 -182.5q-268 0 -419 182.5t-151 501.5zM264 664q0 -286 104 -436t300 -150q197 0 302 150t105 436q0 285 -105.5 436t-301.5 151q-194 0 -299 -151t-105 -436zM403 1565l226 233h80 l221 -233l-37 -66l-225 199l-226 -199z" />
<glyph unicode="&#xd5;" d="M98 664q0 318 151.5 502t418.5 184q269 0 421 -184t152 -502q0 -319 -152 -501.5t-421 -182.5q-268 0 -419 182.5t-151 501.5zM264 664q0 -286 104 -436t300 -150q197 0 302 150t105 436q0 285 -105.5 436t-301.5 151q-194 0 -299 -151t-105 -436zM344 1561q3 5 8 14 t23 31t39 39t55.5 31t71.5 14q43 0 88 -15t77 -32.5t72 -32.5t74 -15q33 0 59 14t35 28l10 14l48 -52q-2 -4 -6 -11t-19 -25t-33.5 -32t-49.5 -25t-67 -11q-51 0 -106.5 23.5t-109 47t-99.5 23.5q-36 0 -66.5 -20t-43.5 -40l-13 -20z" />
<glyph unicode="&#xd6;" d="M98 664q0 318 151.5 502t418.5 184q269 0 421 -184t152 -502q0 -319 -152 -501.5t-421 -182.5q-268 0 -419 182.5t-151 501.5zM264 664q0 -286 104 -436t300 -150q197 0 302 150t105 436q0 285 -105.5 436t-301.5 151q-194 0 -299 -151t-105 -436zM430 1595q0 39 23 62 q27 20 55 20q26 0 53 -20q23 -26 23 -62q0 -33 -23 -59q-27 -20 -53 -20q-28 0 -55 20q-23 23 -23 59zM745 1595q0 39 23 62q27 20 53 20t53 -20q25 -25 25 -62q0 -34 -25 -59q-27 -20 -53 -20t-53 20q-23 23 -23 59z" />
<glyph unicode="&#xd7;" horiz-adv-x="722" d="M82 905l63 78l215 -252l218 252l63 -78l-215 -250l215 -249l-63 -76l-216 250l-215 -250l-63 76l213 249z" />
<glyph unicode="&#xd8;" d="M98 664q0 318 151.5 502t418.5 184q136 0 250 -54l77 195l58 -12l-84 -209q131 -82 201.5 -237.5t70.5 -368.5q0 -319 -152 -501.5t-421 -182.5q-107 0 -205 32l-88 -219l-53 12l90 228q-151 74 -232.5 236.5t-81.5 394.5zM264 664q0 -394 191 -525l419 1053 q-86 59 -206 59q-194 0 -299 -151t-105 -436zM502 111q70 -33 166 -33q197 0 302 150t105 436q0 344 -153 491z" />
<glyph unicode="&#xd9;" horiz-adv-x="1269" d="M176 434v897h154v-862q0 -186 82 -285.5t239 -99.5q163 0 246.5 101t83.5 284v862h113v-897q0 -208 -114.5 -331t-344.5 -123q-224 0 -341.5 123t-117.5 331zM436 1726l127 33l170 -293l-82 -16z" />
<glyph unicode="&#xda;" horiz-adv-x="1269" d="M176 434v897h154v-862q0 -186 82 -285.5t239 -99.5q163 0 246.5 101t83.5 284v862h113v-897q0 -208 -114.5 -331t-344.5 -123q-224 0 -341.5 123t-117.5 331zM561 1456l158 297l129 -31l-209 -276z" />
<glyph unicode="&#xdb;" horiz-adv-x="1269" d="M176 434v897h154v-862q0 -186 82 -285.5t239 -99.5q163 0 246.5 101t83.5 284v862h113v-897q0 -208 -114.5 -331t-344.5 -123q-224 0 -341.5 123t-117.5 331zM391 1565l225 233h80l222 -233l-37 -66l-226 199l-225 -199z" />
<glyph unicode="&#xdc;" horiz-adv-x="1269" d="M176 434v897h154v-862q0 -186 82 -285.5t239 -99.5q163 0 246.5 101t83.5 284v862h113v-897q0 -208 -114.5 -331t-344.5 -123q-224 0 -341.5 123t-117.5 331zM420 1595q0 40 22 62q27 20 54 20q28 0 55 -20q22 -25 22 -62q0 -34 -22 -59q-27 -20 -55 -20q-27 0 -54 20 q-22 22 -22 59zM735 1595q0 39 23 62q27 20 53 20t53 -20q25 -25 25 -62q0 -34 -25 -59q-27 -20 -53 -20t-53 20q-23 23 -23 59z" />
<glyph unicode="&#xdd;" horiz-adv-x="1038" d="M4 1331h174l367 -655l364 655h125l-434 -770v-561h-156v551zM485 1456l158 297l129 -31l-209 -276z" />
<glyph unicode="&#xde;" horiz-adv-x="1052" d="M217 0v1331h154v-223h166q205 0 318.5 -107.5t113.5 -322.5q0 -98 -25.5 -177.5t-67 -130t-98 -84.5t-116 -48.5t-123.5 -14.5h-168v-223h-154zM371 315h155q62 0 111 17t89.5 55.5t62.5 110.5t22 174q0 179 -73 260.5t-212 81.5h-155v-699z" />
<glyph unicode="&#xdf;" horiz-adv-x="1085" d="M154 0v1120q0 217 96.5 325.5t275.5 108.5q157 0 247.5 -76t90.5 -210q0 -106 -58.5 -173t-143.5 -102q350 -75 350 -506q0 -259 -103 -383t-293 -124q-49 0 -90 5.5t-65 13.5t-40.5 15.5t-22.5 13.5l-7 5l21 86q5 -5 16 -12.5t54 -20t98 -12.5q133 0 202.5 98t69.5 313 q0 239 -87 340t-290 101v98q5 0 13.5 1t34 7t48 14.5t50.5 26.5t48 40.5t34 59t14 80.5q0 102 -51.5 155.5t-147.5 53.5q-110 0 -163.5 -84t-53.5 -258v-1120h-147z" />
<glyph unicode="&#xe0;" horiz-adv-x="976" d="M66 231q0 300 579 363v108q0 145 -47.5 198.5t-165.5 53.5q-53 0 -115.5 -22t-98.5 -44l-36 -22l-16 84q6 4 16 10t42 22.5t64.5 29t78.5 22.5t88 10q176 0 258 -74t82 -259v-502q0 -44 4.5 -73.5t13 -42.5t16.5 -18t19 -5q14 0 34 4.5t33 9.5l13 4l6 -70 q-101 -38 -160 -38q-54 0 -82.5 33.5t-34.5 119.5h-2q-3 -6 -9 -16.5t-30.5 -37t-54.5 -46.5t-82.5 -36.5t-113.5 -16.5q-135 0 -217 66t-82 185zM219 250q0 -88 51.5 -134t139.5 -46q47 0 88.5 15.5t67 37.5t44.5 43.5t27 37.5l8 15v299q-68 -8 -122.5 -18.5t-113.5 -31 t-98.5 -48.5t-65.5 -71.5t-26 -98.5zM248 1450l127 33l170 -293l-82 -16z" />
<glyph unicode="&#xe1;" horiz-adv-x="976" d="M66 231q0 300 579 363v108q0 145 -47.5 198.5t-165.5 53.5q-53 0 -115.5 -22t-98.5 -44l-36 -22l-16 84q6 4 16 10t42 22.5t64.5 29t78.5 22.5t88 10q176 0 258 -74t82 -259v-502q0 -44 4.5 -73.5t13 -42.5t16.5 -18t19 -5q14 0 34 4.5t33 9.5l13 4l6 -70 q-101 -38 -160 -38q-54 0 -82.5 33.5t-34.5 119.5h-2q-3 -6 -9 -16.5t-30.5 -37t-54.5 -46.5t-82.5 -36.5t-113.5 -16.5q-135 0 -217 66t-82 185zM219 250q0 -88 51.5 -134t139.5 -46q47 0 88.5 15.5t67 37.5t44.5 43.5t27 37.5l8 15v299q-68 -8 -122.5 -18.5t-113.5 -31 t-98.5 -48.5t-65.5 -71.5t-26 -98.5zM410 1180l157 297l129 -31l-209 -277z" />
<glyph unicode="&#xe2;" horiz-adv-x="976" d="M66 231q0 300 579 363v108q0 145 -47.5 198.5t-165.5 53.5q-53 0 -115.5 -22t-98.5 -44l-36 -22l-16 84q6 4 16 10t42 22.5t64.5 29t78.5 22.5t88 10q176 0 258 -74t82 -259v-502q0 -44 4.5 -73.5t13 -42.5t16.5 -18t19 -5q14 0 34 4.5t33 9.5l13 4l6 -70 q-101 -38 -160 -38q-54 0 -82.5 33.5t-34.5 119.5h-2q-3 -6 -9 -16.5t-30.5 -37t-54.5 -46.5t-82.5 -36.5t-113.5 -16.5q-135 0 -217 66t-82 185zM213 1288l225 234h80l221 -234l-37 -65l-225 198l-225 -198zM219 250q0 -88 51.5 -134t139.5 -46q47 0 88.5 15.5t67 37.5 t44.5 43.5t27 37.5l8 15v299q-68 -8 -122.5 -18.5t-113.5 -31t-98.5 -48.5t-65.5 -71.5t-26 -98.5z" />
<glyph unicode="&#xe3;" horiz-adv-x="976" d="M66 231q0 300 579 363v108q0 145 -47.5 198.5t-165.5 53.5q-53 0 -115.5 -22t-98.5 -44l-36 -22l-16 84q6 4 16 10t42 22.5t64.5 29t78.5 22.5t88 10q176 0 258 -74t82 -259v-502q0 -44 4.5 -73.5t13 -42.5t16.5 -18t19 -5q14 0 34 4.5t33 9.5l13 4l6 -70 q-101 -38 -160 -38q-54 0 -82.5 33.5t-34.5 119.5h-2q-3 -6 -9 -16.5t-30.5 -37t-54.5 -46.5t-82.5 -36.5t-113.5 -16.5q-135 0 -217 66t-82 185zM156 1284q3 5 8 14t23 31t38.5 39t55 31t71.5 14q54 0 110.5 -23.5t107.5 -47t94 -23.5q21 0 39 5.5t29.5 13.5t20 16.5 t11.5 13.5l4 6l47 -51q-2 -4 -6 -11t-19 -25t-33 -32t-49 -25t-67 -11q-51 0 -106.5 23.5t-109 47t-99.5 23.5q-36 0 -66.5 -20t-43.5 -40l-13 -20zM219 250q0 -88 51.5 -134t139.5 -46q47 0 88.5 15.5t67 37.5t44.5 43.5t27 37.5l8 15v299q-68 -8 -122.5 -18.5t-113.5 -31 t-98.5 -48.5t-65.5 -71.5t-26 -98.5z" />
<glyph unicode="&#xe4;" horiz-adv-x="976" d="M66 231q0 300 579 363v108q0 145 -47.5 198.5t-165.5 53.5q-53 0 -115.5 -22t-98.5 -44l-36 -22l-16 84q6 4 16 10t42 22.5t64.5 29t78.5 22.5t88 10q176 0 258 -74t82 -259v-502q0 -44 4.5 -73.5t13 -42.5t16.5 -18t19 -5q14 0 34 4.5t33 9.5l13 4l6 -70 q-101 -38 -160 -38q-54 0 -82.5 33.5t-34.5 119.5h-2q-3 -6 -9 -16.5t-30.5 -37t-54.5 -46.5t-82.5 -36.5t-113.5 -16.5q-135 0 -217 66t-82 185zM219 250q0 -88 51.5 -134t139.5 -46q47 0 88.5 15.5t67 37.5t44.5 43.5t27 37.5l8 15v299q-68 -8 -122.5 -18.5t-113.5 -31 t-98.5 -48.5t-65.5 -71.5t-26 -98.5zM240 1319q0 39 22 61q28 21 53 21q28 0 56 -21q22 -25 22 -61q0 -34 -22 -59q-28 -21 -56 -21q-25 0 -53 21q-22 22 -22 59zM555 1319q0 38 23 61q28 21 53 21t53 -21q25 -25 25 -61q0 -34 -25 -59q-28 -21 -53 -21t-53 21 q-23 23 -23 59z" />
<glyph unicode="&#xe5;" horiz-adv-x="976" d="M66 231q0 300 579 363v108q0 145 -47.5 198.5t-165.5 53.5q-53 0 -115.5 -22t-98.5 -44l-36 -22l-16 84q6 4 16 10t42 22.5t64.5 29t78.5 22.5t88 10q176 0 258 -74t82 -259v-502q0 -44 4.5 -73.5t13 -42.5t16.5 -18t19 -5q14 0 34 4.5t33 9.5l13 4l6 -70 q-101 -38 -160 -38q-54 0 -82.5 33.5t-34.5 119.5h-2q-3 -6 -9 -16.5t-30.5 -37t-54.5 -46.5t-82.5 -36.5t-113.5 -16.5q-135 0 -217 66t-82 185zM219 250q0 -88 51.5 -134t139.5 -46q47 0 88.5 15.5t67 37.5t44.5 43.5t27 37.5l8 15v299q-68 -8 -122.5 -18.5t-113.5 -31 t-98.5 -48.5t-65.5 -71.5t-26 -98.5zM295 1319q0 91 51 141.5t131 50.5q78 0 130 -51t52 -141q0 -92 -50.5 -141.5t-131.5 -49.5q-82 0 -132 49.5t-50 141.5zM352 1319q0 -69 34.5 -103t90.5 -34t89.5 34t33.5 103t-34 103t-89 34t-90 -34.5t-35 -102.5z" />
<glyph unicode="&#xe6;" horiz-adv-x="1488" d="M66 233q0 309 571 363v82q0 156 -39.5 216t-151.5 60q-53 0 -114.5 -22t-97.5 -44l-35 -22l-19 84q6 4 16 10t42.5 22.5t65 29t78.5 22.5t89 10q114 0 175.5 -39.5t86.5 -127.5q110 167 324 167q175 0 270.5 -121t95.5 -345q0 -28 -2.5 -52t-4.5 -34l-3 -9h-620 q0 -413 299 -413q51 0 97 13.5t75 33t51 39.5t31 34l10 13l59 -49q-4 -7 -11.5 -19t-37 -42t-64.5 -52.5t-96.5 -41.5t-130.5 -19q-145 0 -247 63.5t-150 192.5q-75 -256 -313 -256q-134 0 -216.5 67t-82.5 186zM219 252q0 -88 52 -135t139 -47q52 0 93.5 25t65.5 61t40 85 t22.5 87.5t9.5 79.5q-4 54 -4 84v30q-67 -8 -121.5 -18.5t-112 -31.5t-96 -49t-63.5 -72t-25 -99zM795 569h489q2 21 2 39q0 348 -229 348q-122 0 -187 -95.5t-75 -291.5z" />
<glyph unicode="&#xe7;" horiz-adv-x="866" d="M76 502q0 262 113.5 402t332.5 140q71 0 143 -22t108 -44l36 -22l-18 -84q-13 9 -36 22.5t-89.5 36.5t-126.5 23q-158 0 -232 -104t-74 -346q0 -233 77.5 -333.5t219.5 -100.5q50 0 94.5 13t72.5 32t48.5 37.5t29.5 31.5l9 13l66 -43q-3 -7 -10 -18t-33.5 -40t-59.5 -52 t-90.5 -42.5t-124.5 -21.5l-12 -121q0 -2 20.5 -6.5t49 -14.5t57.5 -27t49.5 -50.5t20.5 -77.5q0 -91 -54.5 -144t-158.5 -53q-38 0 -72 9t-54.5 21.5t-35.5 25t-21 21.5l-6 9l37 41q5 -7 15 -18t45.5 -29.5t76.5 -18.5q136 0 136 140q0 34 -17.5 58.5t-43 35.5t-51 17 t-43 9t-17.5 5l22 170q-193 12 -296 142t-103 378z" />
<glyph unicode="&#xe8;" horiz-adv-x="927" d="M76 492q0 259 112 405.5t308 146.5q175 0 270.5 -121t95.5 -345q0 -28 -2.5 -52t-5.5 -34l-2 -9h-621q0 -413 299 -413q51 0 97 13.5t75.5 33t51.5 39.5t32 34l9 13l59 -49q-4 -7 -11.5 -19t-37 -42t-64.5 -52.5t-96.5 -41.5t-130.5 -19q-205 0 -321.5 128t-116.5 384z M233 569h490q2 21 2 39q0 348 -229 348q-242 0 -263 -387zM266 1450l127 33l170 -293l-82 -16z" />
<glyph unicode="&#xe9;" horiz-adv-x="927" d="M76 492q0 259 112 405.5t308 146.5q175 0 270.5 -121t95.5 -345q0 -28 -2.5 -52t-5.5 -34l-2 -9h-621q0 -413 299 -413q51 0 97 13.5t75.5 33t51.5 39.5t32 34l9 13l59 -49q-4 -7 -11.5 -19t-37 -42t-64.5 -52.5t-96.5 -41.5t-130.5 -19q-205 0 -321.5 128t-116.5 384z M233 569h490q2 21 2 39q0 348 -229 348q-242 0 -263 -387zM430 1180l158 297l129 -31l-209 -277z" />
<glyph unicode="&#xea;" horiz-adv-x="927" d="M76 492q0 259 112 405.5t308 146.5q175 0 270.5 -121t95.5 -345q0 -28 -2.5 -52t-5.5 -34l-2 -9h-621q0 -413 299 -413q51 0 97 13.5t75.5 33t51.5 39.5t32 34l9 13l59 -49q-4 -7 -11.5 -19t-37 -42t-64.5 -52.5t-96.5 -41.5t-130.5 -19q-205 0 -321.5 128t-116.5 384z M231 1288l226 234h80l221 -234l-37 -65l-225 198l-226 -198zM233 569h490q2 21 2 39q0 348 -229 348q-242 0 -263 -387z" />
<glyph unicode="&#xeb;" horiz-adv-x="927" d="M76 492q0 259 112 405.5t308 146.5q175 0 270.5 -121t95.5 -345q0 -28 -2.5 -52t-5.5 -34l-2 -9h-621q0 -413 299 -413q51 0 97 13.5t75.5 33t51.5 39.5t32 34l9 13l59 -49q-4 -7 -11.5 -19t-37 -42t-64.5 -52.5t-96.5 -41.5t-130.5 -19q-205 0 -321.5 128t-116.5 384z M233 569h490q2 21 2 39q0 348 -229 348q-242 0 -263 -387zM260 1319q0 38 23 61q28 21 53 21q27 0 55 -21q23 -26 23 -61q0 -33 -23 -59q-28 -21 -55 -21q-25 0 -53 21q-23 23 -23 59zM575 1319q0 38 23 61q28 21 53 21q26 0 54 -21q24 -24 24 -61q0 -35 -24 -59 q-28 -21 -54 -21q-25 0 -53 21q-23 23 -23 59z" />
<glyph unicode="&#xec;" horiz-adv-x="454" d="M-6 1450l127 33l170 -293l-82 -16zM152 0v1024h149v-1024h-149z" />
<glyph unicode="&#xed;" horiz-adv-x="454" d="M152 0v1024h149v-1024h-149zM158 1180l157 297l129 -31l-208 -277z" />
<glyph unicode="&#xee;" horiz-adv-x="454" d="M-37 1288l225 234h80l221 -234l-36 -65l-226 198l-225 -198zM152 0v1024h149v-1024h-149z" />
<glyph unicode="&#xef;" horiz-adv-x="454" d="M-8 1319q0 39 22 61q28 21 56 21q25 0 53 -21q22 -25 22 -61q0 -34 -22 -59q-28 -21 -53 -21q-28 0 -56 21q-22 22 -22 59zM152 0v1024h149v-1024h-149zM307 1319q0 38 23 61q28 21 53 21t53 -21q25 -25 25 -61q0 -34 -25 -59q-28 -21 -53 -21t-53 21q-23 23 -23 59z" />
<glyph unicode="&#xf0;" horiz-adv-x="1040" d="M78 512q0 252 109 392t311 140q171 0 290 -135q-48 263 -186 422l-221 -127l-25 53l205 117q-48 48 -119 96l78 46q68 -38 129 -93l170 99l25 -54l-152 -86q258 -274 258 -845q0 -270 -111.5 -413.5t-326.5 -143.5q-208 0 -321 140t-113 392zM233 512q0 -224 67.5 -334 t211.5 -110t211.5 110t67.5 334q0 210 -68.5 327t-210.5 117q-144 0 -211.5 -110.5t-67.5 -333.5z" />
<glyph unicode="&#xf1;" horiz-adv-x="1048" d="M154 0v1024h122l19 -98q101 118 303 118q148 0 229.5 -82.5t81.5 -246.5v-715h-149v684q0 132 -53.5 192t-157.5 60q-47 0 -90 -10.5t-70.5 -25.5t-48.5 -30t-30 -26l-9 -10v-834h-147zM174 1284q3 5 8 14t23 31t39 39t55.5 31t71.5 14q54 0 110 -23.5t107 -47t94 -23.5 q21 0 39 5.5t29.5 13.5t20 16.5t11.5 13.5l4 6l48 -51q-2 -4 -6 -11t-19 -25t-33.5 -32t-49.5 -25t-67 -11q-51 0 -106.5 23.5t-109 47t-99.5 23.5q-36 0 -66.5 -20t-43.5 -40l-13 -20z" />
<glyph unicode="&#xf2;" horiz-adv-x="1026" d="M76 512q0 254 111.5 393t324.5 139t324.5 -139t111.5 -393q0 -252 -114 -392t-322 -140q-213 0 -324.5 139t-111.5 393zM233 512q0 -223 67.5 -332.5t211.5 -109.5q143 0 211 109.5t68 332.5q0 222 -68 332t-211 110q-144 0 -211.5 -109.5t-67.5 -332.5zM270 1450l127 33 l170 -293l-82 -16z" />
<glyph unicode="&#xf3;" horiz-adv-x="1026" d="M76 512q0 254 111.5 393t324.5 139t324.5 -139t111.5 -393q0 -252 -114 -392t-322 -140q-213 0 -324.5 139t-111.5 393zM233 512q0 -223 67.5 -332.5t211.5 -109.5q143 0 211 109.5t68 332.5q0 222 -68 332t-211 110q-144 0 -211.5 -109.5t-67.5 -332.5zM434 1180 l158 297l129 -31l-209 -277z" />
<glyph unicode="&#xf4;" horiz-adv-x="1026" d="M76 512q0 254 111.5 393t324.5 139t324.5 -139t111.5 -393q0 -252 -114 -392t-322 -140q-213 0 -324.5 139t-111.5 393zM233 512q0 -223 67.5 -332.5t211.5 -109.5q143 0 211 109.5t68 332.5q0 222 -68 332t-211 110q-144 0 -211.5 -109.5t-67.5 -332.5zM236 1288 l225 234h80l221 -234l-37 -65l-225 198l-226 -198z" />
<glyph unicode="&#xf5;" horiz-adv-x="1026" d="M76 512q0 254 111.5 393t324.5 139t324.5 -139t111.5 -393q0 -252 -114 -392t-322 -140q-213 0 -324.5 139t-111.5 393zM178 1284q3 5 8 14t23 31t39 39t55.5 31t71.5 14q54 0 110 -23.5t107 -47t94 -23.5q33 0 59 13.5t36 27.5l10 14l47 -51q-2 -4 -6 -11t-19 -25 t-33 -32t-49 -25t-67 -11q-51 0 -106.5 23.5t-109.5 47t-100 23.5q-36 0 -66.5 -20t-43.5 -40l-13 -20zM233 512q0 -223 67.5 -332.5t211.5 -109.5q143 0 211 109.5t68 332.5q0 222 -68 332t-211 110q-144 0 -211.5 -109.5t-67.5 -332.5z" />
<glyph unicode="&#xf6;" horiz-adv-x="1026" d="M76 512q0 254 111.5 393t324.5 139t324.5 -139t111.5 -393q0 -252 -114 -392t-322 -140q-213 0 -324.5 139t-111.5 393zM233 512q0 -223 67.5 -332.5t211.5 -109.5q143 0 211 109.5t68 332.5q0 222 -68 332t-211 110q-144 0 -211.5 -109.5t-67.5 -332.5zM264 1319 q0 38 23 61q28 21 53 21q27 0 55 -21q23 -26 23 -61q0 -33 -23 -59q-28 -21 -55 -21q-25 0 -53 21q-23 23 -23 59zM580 1319q0 39 22 61q28 21 53 21q26 0 54 -21q24 -24 24 -61q0 -35 -24 -59q-28 -21 -54 -21q-25 0 -53 21q-22 22 -22 59z" />
<glyph unicode="&#xf7;" horiz-adv-x="960" d="M70 471v96h823v-96h-823zM385 135q0 44 29 70q27 24 63 24q39 0 66 -24q26 -26 26 -70q0 -43 -26 -69q-28 -25 -66 -25q-35 0 -63 25q-29 26 -29 69zM389 903q0 44 29 70q27 24 63 24q39 0 66 -24q26 -26 26 -70q0 -43 -26 -69q-28 -25 -66 -25q-35 0 -63 25 q-29 26 -29 69z" />
<glyph unicode="&#xf8;" horiz-adv-x="1044" d="M76 512q0 254 111.5 393t324.5 139q94 0 170 -28l123 315l76 -12l-131 -338q198 -124 198 -469q0 -252 -114 -392t-322 -140q-76 0 -141 18l-142 -365l-73 13l145 381q-110 57 -167.5 181t-57.5 304zM233 512q0 -285 107 -383l305 791q-55 34 -133 34 q-144 0 -211.5 -109.5t-67.5 -332.5zM406 88q46 -18 106 -18q143 0 211 109.5t68 332.5q0 248 -84 354z" />
<glyph unicode="&#xf9;" horiz-adv-x="1048" d="M139 309v715h150v-684q0 -252 213 -252q46 0 88 11t69 26t47.5 30.5t29.5 26.5l9 11v831h150v-1024h-125l-20 98q-9 -12 -25 -26t-51 -38t-93 -39t-128 -15q-150 0 -232 82.5t-82 246.5zM287 1450l127 33l170 -293l-82 -16z" />
<glyph unicode="&#xfa;" horiz-adv-x="1048" d="M139 309v715h150v-684q0 -252 213 -252q46 0 88 11t69 26t47.5 30.5t29.5 26.5l9 11v831h150v-1024h-125l-20 98q-9 -12 -25 -26t-51 -38t-93 -39t-128 -15q-150 0 -232 82.5t-82 246.5zM451 1180l157 297l129 -31l-209 -277z" />
<glyph unicode="&#xfb;" horiz-adv-x="1048" d="M139 309v715h150v-684q0 -252 213 -252q46 0 88 11t69 26t47.5 30.5t29.5 26.5l9 11v831h150v-1024h-125l-20 98q-9 -12 -25 -26t-51 -38t-93 -39t-128 -15q-150 0 -232 82.5t-82 246.5zM254 1288l225 234h80l221 -234l-37 -65l-225 198l-225 -198z" />
<glyph unicode="&#xfc;" horiz-adv-x="1048" d="M139 309v715h150v-684q0 -252 213 -252q46 0 88 11t69 26t47.5 30.5t29.5 26.5l9 11v831h150v-1024h-125l-20 98q-9 -12 -25 -26t-51 -38t-93 -39t-128 -15q-150 0 -232 82.5t-82 246.5zM283 1319q0 39 22 61q28 21 55 21q26 0 54 -21q22 -25 22 -61q0 -34 -22 -59 q-28 -21 -54 -21q-27 0 -55 21q-22 22 -22 59zM598 1319q0 38 23 61q28 21 53 21t53 -21q25 -25 25 -61q0 -34 -25 -59q-28 -21 -53 -21t-53 21q-23 23 -23 59z" />
<glyph unicode="&#xfd;" horiz-adv-x="919" d="M31 1024h176l303 -856l274 856h109l-354 -1040q-33 -95 -60 -162t-64.5 -139t-74 -115.5t-84 -71.5t-100.5 -28q-36 0 -67 6.5t-43 13.5l-13 6l16 94q39 -18 84 -18q41 0 77 22t63.5 55t57 92t50.5 112t51 137zM418 1180l157 297l130 -31l-209 -277z" />
<glyph unicode="&#xfe;" horiz-adv-x="1052" d="M150 -516v1540h2v508l149 8v-633h2q3 6 8.5 15.5t27.5 33.5t50 42.5t77.5 33.5t108.5 15q183 0 293.5 -134t110.5 -372q0 -259 -109 -411.5t-313 -152.5q-163 0 -258 89v-578zM301 168q5 -8 18 -20.5t38 -30t68 -29.5t93 -12q158 0 230.5 115.5t72.5 345.5 q0 213 -73.5 312t-215.5 99q-56 0 -102.5 -20t-73 -49.5t-38.5 -47t-17 -30.5v-633z" />
<glyph unicode="&#xff;" horiz-adv-x="919" d="M31 1024h176l303 -856l274 856h109l-354 -1040q-33 -95 -60 -162t-64.5 -139t-74 -115.5t-84 -71.5t-100.5 -28q-36 0 -67 6.5t-43 13.5l-13 6l16 94q39 -18 84 -18q41 0 77 22t63.5 55t57 92t50.5 112t51 137zM248 1319q0 39 22 61q28 21 54 21q27 0 55 -21 q22 -25 22 -61q0 -34 -22 -59q-28 -21 -55 -21q-26 0 -54 21q-22 22 -22 59zM563 1319q0 38 23 61q28 21 53 21t53 -21q25 -25 25 -61q0 -34 -25 -59q-28 -21 -53 -21t-53 21q-23 23 -23 59z" />
<glyph unicode="&#x152;" horiz-adv-x="1925" d="M98 664q0 318 151.5 502t418.5 184q260 0 411 -174v155h719v-98h-563v-449q4 -40 4 -63h510v-94h-508l-6 -86v-443h608v-98h-764v152q-152 -172 -411 -172q-268 0 -419 182.5t-151 501.5zM264 664q0 -286 104 -436t300 -150q197 0 302 150t105 436q0 285 -105.5 436 t-301.5 151q-194 0 -299 -151t-105 -436z" />
<glyph unicode="&#x153;" horiz-adv-x="1644" d="M76 512q0 254 111.5 393t324.5 139q251 0 360 -194q112 194 340 194q175 0 271 -121t96 -345q0 -28 -2.5 -52t-4.5 -34l-3 -9h-621q0 -413 299 -413q51 0 97 13.5t75 33t51 39.5t32 34l9 13l60 -49q-4 -7 -11.5 -19t-37 -42t-64.5 -52.5t-96.5 -41.5t-130.5 -19 q-257 0 -365 186q-114 -186 -354 -186q-213 0 -324.5 139t-111.5 393zM233 512q0 -223 67.5 -332.5t211.5 -109.5q143 0 211 109.5t68 332.5q0 222 -68 332t-211 110q-144 0 -211.5 -109.5t-67.5 -332.5zM950 569h490q2 21 2 39q0 348 -230 348q-122 0 -187 -95.5 t-75 -291.5z" />
<glyph unicode="&#x178;" horiz-adv-x="1038" d="M4 1331h174l367 -655l364 655h125l-434 -770v-561h-156v551zM307 1595q0 39 23 62q27 20 55 20q26 0 53 -20q23 -26 23 -62q0 -33 -23 -59q-27 -20 -53 -20q-28 0 -55 20q-23 23 -23 59zM623 1595q0 40 22 62q27 20 53 20q27 0 54 -20q24 -24 24 -62q0 -35 -24 -59 q-27 -20 -54 -20q-26 0 -53 20q-22 22 -22 59z" />
<glyph unicode="&#x2c6;" horiz-adv-x="688" d="M78 1288l225 234h80l221 -234l-37 -65l-225 198l-225 -198z" />
<glyph unicode="&#x2dc;" horiz-adv-x="811" d="M78 1284q3 5 8 14t23 31t38.5 39t55 31t71.5 14q54 0 110.5 -23.5t107.5 -47t94 -23.5q21 0 39 5.5t29.5 13.5t20 16.5t11.5 13.5l4 6l47 -51q-2 -4 -6 -11t-19 -25t-33 -32t-49 -25t-67 -11q-51 0 -106.5 23.5t-109 47t-99.5 23.5q-36 0 -66.5 -20t-43.5 -40l-13 -20z " />
<glyph unicode="&#x2000;" horiz-adv-x="899" />
<glyph unicode="&#x2001;" horiz-adv-x="1798" />
<glyph unicode="&#x2002;" horiz-adv-x="899" />
<glyph unicode="&#x2003;" horiz-adv-x="1798" />
<glyph unicode="&#x2004;" horiz-adv-x="599" />
<glyph unicode="&#x2005;" horiz-adv-x="449" />
<glyph unicode="&#x2006;" horiz-adv-x="299" />
<glyph unicode="&#x2007;" horiz-adv-x="299" />
<glyph unicode="&#x2008;" horiz-adv-x="224" />
<glyph unicode="&#x2009;" horiz-adv-x="359" />
<glyph unicode="&#x200a;" horiz-adv-x="99" />
<glyph unicode="&#x2010;" horiz-adv-x="608" d="M70 520v96h469v-96h-469z" />
<glyph unicode="&#x2011;" horiz-adv-x="608" d="M70 520v96h469v-96h-469z" />
<glyph unicode="&#x2012;" horiz-adv-x="608" d="M70 520v96h469v-96h-469z" />
<glyph unicode="&#x2013;" horiz-adv-x="962" d="M70 520v96h823v-96h-823z" />
<glyph unicode="&#x2014;" horiz-adv-x="1275" d="M70 520v96h1138v-96h-1138z" />
<glyph unicode="&#x2018;" horiz-adv-x="288" d="M45 1149q0 99 52.5 218t129.5 183l43 -45q-64 -58 -102.5 -148t-38.5 -167v-10h8q31 0 56 -19q22 -25 22 -61q0 -37 -22 -62q-25 -22 -58 -22t-55 22q-2 1 -5 5l-3 4q-27 37 -27 102z" />
<glyph unicode="&#x2019;" horiz-adv-x="288" d="M2 1055q64 58 102.5 147.5t38.5 165.5v10h-8q-32 0 -53 21q-25 25 -25 61q0 37 25 62q20 20 55 20t58 -20q3 -3 5.5 -6.5t5 -8t3.5 -6.5q18 -37 18 -92q0 -99 -51.5 -217t-128.5 -184z" />
<glyph unicode="&#x201a;" horiz-adv-x="288" d="M2 -287q64 59 102.5 149t38.5 165v10h-8q-33 0 -53 20q-25 25 -25 62q0 36 25 61q21 21 55 21t58 -21q2 -2 14 -20q18 -37 18 -92q0 -99 -51.5 -218t-128.5 -184z" />
<glyph unicode="&#x201c;" horiz-adv-x="593" d="M45 1149q0 99 52.5 218t129.5 183l43 -45q-64 -58 -102.5 -148t-38.5 -167v-10h8q31 0 56 -19q22 -25 22 -61q0 -37 -22 -62q-25 -22 -58 -22t-55 22q-2 1 -5 5l-3 4q-27 37 -27 102zM348 1149q0 99 52.5 218t129.5 183l43 -45q-64 -58 -102.5 -148t-38.5 -167v-10h8 q31 0 56 -19q22 -25 22 -61q0 -37 -22 -62q-25 -22 -58 -22t-55 22q-2 1 -5 5l-3 4q-27 37 -27 102z" />
<glyph unicode="&#x201d;" horiz-adv-x="593" d="M2 1055q64 58 102.5 147.5t38.5 165.5v10h-8q-32 0 -53 21q-25 25 -25 61q0 37 25 62q20 20 55 20t58 -20q3 -3 5.5 -6.5t5 -8t3.5 -6.5q18 -37 18 -92q0 -99 -51.5 -217t-128.5 -184zM305 1055q64 58 102.5 147.5t38.5 165.5v10h-8q-32 0 -53 21q-25 25 -25 61 q0 37 25 62q20 20 55 20t58 -20q3 -3 5.5 -6.5t5 -8t3.5 -6.5q18 -37 18 -92q0 -99 -51.5 -217t-128.5 -184z" />
<glyph unicode="&#x201e;" horiz-adv-x="593" d="M2 -287q64 59 102.5 149t38.5 165v10h-8q-33 0 -53 20q-25 25 -25 62q0 36 25 61q21 21 55 21t58 -21q2 -2 14 -20q18 -37 18 -92q0 -99 -51.5 -218t-128.5 -184zM305 -287q64 59 102.5 149t38.5 165v10h-8q-33 0 -53 20q-25 25 -25 62q0 36 25 61q21 21 55 21t58 -21 q2 -2 14 -20q18 -38 18 -92q0 -99 -51.5 -218t-128.5 -184z" />
<glyph unicode="&#x2022;" horiz-adv-x="614" d="M139 657q0 77 47 121q47 41 111 41t111 -41q47 -47 47 -121q0 -71 -47 -118q-44 -41 -111 -41t-111 41q-47 44 -47 118z" />
<glyph unicode="&#x2026;" horiz-adv-x="1357" d="M154 76q0 44 28 69t64 25q37 0 65 -25q27 -27 27 -69q0 -43 -27 -70q-27 -24 -65 -24q-37 0 -64 24q-28 25 -28 70zM584 76q0 44 28 69t64 25q37 0 65 -25q27 -27 27 -69q0 -43 -27 -70q-27 -24 -65 -24q-37 0 -64 24q-28 25 -28 70zM1014 76q0 44 28 69t64 25 q37 0 65 -25q27 -27 27 -69q0 -43 -27 -70q-27 -24 -65 -24q-37 0 -64 24q-28 25 -28 70z" />
<glyph unicode="&#x202f;" horiz-adv-x="359" />
<glyph unicode="&#x2039;" horiz-adv-x="661" d="M170 512l317 350l45 -53l-221 -299l221 -303l-47 -55z" />
<glyph unicode="&#x203a;" horiz-adv-x="661" d="M125 205l221 297l-219 305l47 55l313 -362l-315 -348z" />
<glyph unicode="&#x205f;" horiz-adv-x="449" />
<glyph unicode="&#x20ac;" horiz-adv-x="1167" d="M94 469v82h117q-4 66 -4 104q0 59 2 88l-115 7v79h121q63 519 510 519q58 0 115.5 -11t98 -26t72.5 -30.5t48 -26.5l16 -11l-18 -92l-16.5 11t-44.5 24t-69 30t-86 24t-100 11q-174 0 -260 -100.5t-106 -321.5h504v-90h-508q-2 -27 -2 -84q0 -71 2 -104h508v-90h-500 q24 -207 114.5 -298t260.5 -91q61 0 118 17t94.5 41.5t66 49t41.5 41.5l13 17l33 -68q-5 -8 -14.5 -20.5t-44.5 -45.5t-76.5 -58t-111.5 -45.5t-148 -20.5q-439 0 -506 483z" />
<glyph unicode="&#x2122;" horiz-adv-x="1538" d="M119 1462v74h223v-2h92v2h260v-74h-260v-643h-92v643h-223zM739 819l37 717h96l207 -629l232 629h90l20 -717h-88l-18 555l-205 -555h-82l-203 576l-16 -576h-70z" />
<glyph unicode="&#xe000;" horiz-adv-x="1024" d="M0 0v1024h1024v-1024h-1024z" />
</font>
</defs>
</svg>
