<?xml version="1.0" standalone="no"?>
<!DOCTYPE svg PUBLIC "-//W3C//DTD SVG 1.1//EN" "http://www.w3.org/Graphics/SVG/1.1/DTD/svg11.dtd" >
<svg xmlns="http://www.w3.org/2000/svg">
<metadata>Generated by IcoMoon</metadata>
<defs>
<font id="icomoon" horiz-adv-x="1024">
<font-face units-per-em="1024" ascent="960" descent="-64" />
<missing-glyph horiz-adv-x="1024" />
<glyph unicode="&#x20;" horiz-adv-x="512" d="" />
<glyph unicode="&#xe900;" glyph-name="book" horiz-adv-x="1608" d="M1017.344 119.389c96.341 21.755 231.626 30.101 413.494-4.787 7.198-1.333 14.5 0.475 20.133 5.146 5.587 4.636 8.832 11.509 8.832 18.811v690.334l21.419-7.905 6.352-732.918c-75.431 14.233-278.556 47.208-470.229 31.318zM845.989 117.152v676.878c33.462 27.667 196.054 141.104 552.569 77.622v-26.6c0.012-0.093 0-0.197 0-0.313v-660.118c-309.99 53.456-481.298-21.674-552.569-67.469zM761.54 117.152c-53.873 34.598-164.818 85.921-349.502 85.921-59.749 0-127.311-5.39-203.078-18.452v660.118c0.012 0.116 0 0.22 0 0.313v26.6c354.034 62.96 518.666-50.187 552.58-77.738zM119.944 88.072l6.34 732.918 21.443 7.905v-690.334c0-7.302 3.234-14.175 8.82-18.811 5.633-4.671 12.935-6.433 20.144-5.146 178.657 34.273 312.853 26.403 409.17 5.169-190.445 15.079-391.101-17.525-465.918-31.7zM1597.776 730.769l-57.744 43.302c-2.944 2.214-6.247 3.581-9.643 4.289l-0.522 59.912c-0.046 10.142-6.444 19.194-15.937 22.694l-54.128 19.959v30.39c0 11.718-8.31 21.767-19.808 23.969-391.981 75.339-582.449-41.599-636.241-83.927-53.792 42.317-244.248 159.208-636.218 83.927-11.521-2.202-19.808-12.251-19.808-23.969v-30.39l-54.128-19.959c-9.504-3.5-15.891-12.553-15.937-22.694l-0.522-59.912c-3.396-0.695-6.699-2.063-9.643-4.289l-57.767-43.302c-6.155-4.601-9.724-11.834-9.724-19.53v-750.849c0-7.87 3.825-15.265 10.211-19.855 4.207-3.002 9.157-4.532 14.175-4.532 2.677 0 5.343 0.429 7.974 1.333 4.346 1.53 441.334 150.399 765.453 86.153 0.127-0.023 0.255 0 0.394-0.023 1.449-0.278 2.898-0.452 4.335-0.452 0.301 0 0.591 0.116 0.892 0.127 0.104 0 0.209 0.023 0.313 0.023 0.116 0 0.22-0.023 0.336-0.023 0.301-0.012 0.58-0.127 0.892-0.127 1.402 0 2.84 0.174 4.254 0.44 0.162 0.023 0.313 0.012 0.464 0.035 323.701 64.2 761.118-84.623 765.464-86.153 2.631-0.904 5.297-1.333 7.963-1.333 5.019 0 9.979 1.53 14.175 4.532 6.398 4.59 10.223 11.985 10.223 19.855v750.849c0 7.696-3.593 14.929-9.748 19.53z" />
<glyph unicode="&#xe901;" glyph-name="camera" horiz-adv-x="1273" d="M1155.318 796.813c0-21.080-17.229-38.31-38.31-38.31h-230.887c-21.080 0-38.281 17.229-38.281 38.31v25.759c0 21.080 17.201 38.338 38.281 38.338h230.887c21.080 0 38.31-17.258 38.31-38.338zM1158.284 960.009h-325.792c-57.394 0-104.86-42.731-113.218-97.9h-362.989v46.525c0 14.947-12.209 27.185-27.156 27.185h-157.832c-14.976 0-27.156-12.238-27.156-27.185v-46.525h-29.21c-63.213 0-114.93-51.717-114.93-114.93v-321.484h319.373c20.538 159.002 156.178 281.948 320.657 281.948 164.622 0 300.118-122.917 320.685-281.948h312.556v419.384c0 63.213-51.746 114.93-114.987 114.93zM960.040 337.964h313.212v-287.025c0-63.213-51.717-114.93-114.958-114.93h-1043.355c-63.241 0-114.93 51.717-114.93 114.93v287.025h320.001c22.364-157.091 156.977-277.897 320.001-277.897 163.167 0 297.665 120.806 320.029 277.897zM628.902 510.789c0 45.584-32.006 83.58-74.68 93.079 26.586 10.412 55.454 16.317 85.805 16.317 130.505 0 236.25-105.802 236.25-236.221 0-130.648-105.745-236.449-236.25-236.449-130.419 0-236.25 105.802-236.25 236.449 0 44.928 12.808 86.832 34.602 122.603 2.254-50.776 43.758-91.282 95.048-91.282 52.687 0 95.475 42.703 95.475 95.504z" />
<glyph unicode="&#xe902;" glyph-name="clock" horiz-adv-x="760" d="M367.565 299.241l191.798 194.309-3.147-23.652 11.859 23.598 11.846 23.601-47.201-23.708 23.044 3.070-193.959-191.461-1.125 1.131-110.132-104.003 14.301-14.294 104.003 110.132zM389.302 315.569h-9.146v9.146c-5.040-0.010-9.141-4.106-9.149-9.146h18.295c-0.010 5.040-4.111 9.136-9.146 9.146v-18.292c5.035 0.010 9.136 4.106 9.146 9.146h-18.295c0.008-5.040 4.109-9.136 9.149-9.146v9.146h27.444c-0.026 15.151-12.29 27.413-27.444 27.444-15.143-0.031-27.411-12.293-27.434-27.444 0.023-15.148 12.29-27.408 27.434-27.439 15.154 0.031 27.418 12.29 27.444 27.439zM380.16 12.584v57.164zM389.302 12.584v57.164h-18.295v-57.164zM683.107 315.549l-66.277 0.026zM683.112 324.701l-66.277 0.015-0.005-18.292 66.277-0.020zM143.525 324.701l-66.274 0.015-0.005-18.292 66.274-0.020zM380.16 618.465v-55.972zM371.006 618.465v-55.972h18.295v55.972zM412.903 4.046l-2.264 21.577zM417.454 4.524l-2.274 21.582-9.095-0.952 2.269-21.587zM445.291 9.154l-4.52 21.222zM449.767 10.111l-4.525 21.222-8.942-1.904 4.52-21.222zM476.966 17.658l-6.724 20.656zM481.318 19.073l-6.719 20.656-8.697-2.833 6.709-20.653zM507.57 29.411l-8.827 19.831zM511.747 31.275l-8.827 19.829-8.353-3.716 8.822-19.831zM536.798 44.309l-10.861 18.795zM540.755 46.601l-10.861 18.79-7.919-4.571 10.864-18.8zM567.965 64.869l-12.755 17.509-7.393-5.387 12.757-17.504zM593.14 85.853l-14.5 16.113-6.798-6.12 14.505-16.108zM615.993 109.384l-16.113 14.505-6.117-6.798 16.116-14.505zM633.548 131.459l-17.499 12.755zM636.245 135.153l-17.509 12.76-5.385-7.396 17.506-12.755zM651.417 158.933l-18.762 10.861zM653.71 162.89l-18.757 10.861-4.583-7.916 18.759-10.861zM666.315 188.161l-19.829 8.863zM668.179 192.338l-19.829 8.863-3.731-8.35 19.826-8.86zM678.068 218.744l-20.656 6.75zM679.488 223.091l-20.656 6.752-2.84-8.692 20.656-6.752zM686.571 250.435l-21.227 4.54zM687.528 254.905l-21.222 4.54-1.914-8.947 21.222-4.535zM691.675 282.822l-21.572 2.292zM692.159 287.373l-21.572 2.284-0.967-9.093 21.582-2.287zM691.675 348.316l-21.572-2.248zM691.202 352.862l-21.577-2.248 0.952-9.095 21.572 2.248zM686.571 380.709l-21.227-4.507zM685.624 385.18l-21.222-4.507 1.894-8.945 21.222 4.499zM678.068 412.379l-20.656-6.699zM676.657 416.731l-20.656-6.699 2.828-8.702 20.648 6.699zM666.315 442.982l-19.829-8.812zM664.461 447.161l-19.829-8.807 3.705-8.36 19.831 8.804zM651.417 472.19l-18.8-10.825zM649.134 476.157l-18.795-10.828 4.571-7.926 18.785 10.825zM633.548 499.684l-17.499-12.722zM630.861 503.385l-17.504-12.724 5.372-7.396 17.509 12.714zM612.933 525.158l-16.113-14.47zM609.878 528.562l-16.113-14.47 6.109-6.809 16.118 14.47zM589.746 548.347l-14.51-16.080zM586.347 551.413l-14.5-16.077 6.786-6.127 14.508 16.077zM564.271 568.982l-12.755-17.506zM560.573 571.675l-12.76-17.504 7.401-5.39 12.75 17.509zM536.798 586.846l-10.861-18.754zM532.84 589.14l-10.861-18.759 7.911-4.583 10.861 18.759zM507.57 601.727l-8.863-19.793zM503.393 603.593l-8.863-19.788 8.35-3.744 8.86 19.793zM476.966 613.483l-6.735-20.62zM472.615 614.904l-6.735-20.62 8.7-2.84 6.732 20.62zM445.291 621.968l-4.54-21.207zM440.82 622.924l-4.54-21.209 8.947-1.909 4.535 21.204zM412.903 627.093l-2.284-21.564zM408.352 627.574l-2.284-21.559 9.098-0.965 2.287 21.559zM347.411 627.093l2.251-21.564zM342.865 626.619l2.251-21.564 9.093 0.949-2.251 21.564zM315.023 621.968l4.507-21.207zM310.547 621.018l4.507-21.207 8.945 1.901-4.504 21.204zM283.348 613.483l6.696-20.62zM278.999 612.070l6.701-20.62 8.695 2.83-6.699 20.612zM252.746 601.727l8.812-19.793zM248.569 599.87l8.809-19.793 8.358 3.716-8.812 19.796zM223.536 586.846l10.828-18.772zM219.578 584.565l10.82-18.782 7.924 4.571-10.825 18.777zM196.045 568.982l12.719-17.527zM192.344 566.296l12.722-17.524 7.396 5.372-12.716 17.527zM170.57 548.347l14.467-16.095zM167.171 545.288l14.47-16.095 6.804 6.112-14.472 16.103zM147.383 525.158l16.075-14.485zM144.318 521.761l16.080-14.485 6.12 6.791-16.075 14.487zM126.743 499.684l17.504-12.737zM124.054 495.985l17.509-12.737 5.382 7.396-17.512 12.739zM108.879 472.19l18.765-10.841zM106.594 468.235l18.759-10.846 4.581 7.919-18.762 10.846zM94.002 442.982l19.773-8.825zM92.135 438.802l19.775-8.825 3.728 8.355-19.773 8.82zM82.246 412.379l20.599-6.719zM80.825 408.028l20.599-6.714 2.838 8.697-20.602 6.719zM73.763 380.709l21.191-4.525zM72.806 376.233l21.191-4.52 1.906 8.945-21.189 4.522zM68.636 348.316l21.541-2.269zM68.158 343.766l21.541-2.264 0.952 9.093-21.536 2.266zM68.636 282.822l21.541 2.274zM69.115 278.277l21.541 2.269-0.957 9.095-21.546-2.269zM73.763 250.435l21.191 4.525zM74.715 245.963l21.189 4.525-1.906 8.942-21.191-4.525zM82.246 218.744l20.599 6.714zM83.661 214.398l20.599 6.719-2.83 8.692-20.599-6.724zM94.002 188.161l19.773 8.822zM95.865 183.984l19.773 8.827-3.728 8.353-19.775-8.827zM108.879 158.933l18.765 10.861zM111.172 154.975l18.762 10.861-4.586 7.919-18.759-10.869zM126.743 131.459l17.504 12.755zM129.44 127.761l17.504 12.76-5.385 7.388-17.504-12.752zM150.443 102.585l16.075 14.505-6.127 6.793-16.072-14.51zM173.977 79.737l14.467 16.113-6.809 6.112-14.47-16.111zM199.746 59.491l12.719 17.504-7.403 5.38-12.716-17.512zM223.536 44.309l10.828 18.762zM227.501 42.026l10.82 18.762-7.916 4.565-10.825-18.752zM252.746 29.411l8.812 19.798zM256.926 27.557l8.804 19.793-8.355 3.718-8.804-19.793zM283.348 17.658l6.696 20.62zM287.696 16.247l6.699 20.61-8.695 2.838-6.701-20.622zM315.023 9.154l4.507 21.222zM319.494 8.207l4.507 21.222-8.947 1.901-4.507-21.225zM347.411 4.046l2.251 21.546zM351.959 3.572l2.251 21.541-9.1 0.952-2.243-21.541zM514.194 682.308c19.714-7.174 38.657-15.94 56.707-26.127l9.498 21.482c14.128 3.93 25.461 15.082 32.196 30.312 11.397 25.752-4.805 30.422-33.77 43.243-28.957 12.816-43.312 21.669-54.706-4.083-6.745-15.228-7.378-31.111-0.794-44.208zM347.894 772.652v-68.954c10.662 0.901 21.429 1.383 32.318 1.383 12.26 0 24.381-0.602 36.35-1.743v69.314c12.456 10.238 18.885 26.502 18.885 44.818 0 30.981-18.377 28.467-53.224 28.467-34.837 0-53.208 2.514-53.208-28.467 0-18.315 6.426-34.579 18.879-44.818zM182.802 677.666l9.246-20.885c18.076 10.129 37.049 18.831 56.779 25.938l-8.937 20.209c6.584 13.092 5.946 28.978-0.789 44.208-11.4 25.752-25.754 16.899-54.717 4.083-28.962-12.821-45.167-17.491-33.77-43.243 6.74-15.228 18.073-26.38 32.188-30.31zM380.212 640.48c-178.806 0-324.27-145.467-324.27-324.273 0-178.801 145.464-324.273 324.27-324.273s324.273 145.472 324.273 324.273c0 178.806-145.467 324.273-324.273 324.273zM380.212-64c-209.646 0-380.212 170.563-380.212 380.207 0 209.651 170.565 380.209 380.212 380.209 209.644 0 380.212-170.558 380.212-380.209 0-209.644-170.568-380.207-380.212-380.207zM378.46 533.222c-41.814 0-75.832-34.020-75.832-75.834 0-41.819 34.018-75.837 75.832-75.837s75.832 34.018 75.832 75.837c0 41.814-34.018 75.834-75.832 75.834zM378.46 374.33c-45.795 0-83.056 37.256-83.056 83.059 0 45.795 37.261 83.056 83.056 83.056 45.797 0 83.054-37.261 83.054-83.056 0-45.803-37.256-83.059-83.054-83.059zM389.302 455.924c0-5.987-4.849-10.841-10.843-10.841-5.992 0-10.846 4.854-10.846 10.841 0 5.989 4.854 10.841 10.846 10.841 5.995 0 10.843-4.851 10.843-10.841zM378.46 460.178h-5.173l2.58 36.046 2.593 36.049 5.175-72.095zM380.16 945.005c-59.323 0-107.591-48.265-107.591-107.588 0-59.325 48.268-107.586 107.591-107.586 59.32 0 107.583 48.26 107.583 107.586 0 59.323-48.263 107.588-107.583 107.588zM380.16 714.836c-67.591 0-122.586 54.987-122.586 122.581 0 67.596 54.995 122.583 122.586 122.583 67.589 0 122.581-54.987 122.581-122.583 0-67.594-54.992-122.581-122.581-122.581z" />
<glyph unicode="&#xe903;" glyph-name="post" horiz-adv-x="1158" d="M1103.349 142.374h-535.069c41.073 64.129 55.138 121.035 56.349 126.189 7.364 31.446-5.87 62.856-30.897 80.227l37.599 160.914c3.545 15.135-5.861 30.27-20.996 33.806-15.108 3.51-30.252-5.879-33.797-21.005l-37.59-160.905c-30.093-4.473-55.845-26.734-63.209-58.153-0.309-1.353-25.735-104.203-120.681-161.073h-57.445c-2.396 1.149-4.765 2.378-7.214 3.439 43.53 27.45 72.66 75.621 72.66 130.883 0 85.62-69.406 155.018-155.018 155.018-1.211 0-2.369-0.15-3.572-0.177v473.672h898.881zM1130.754 960.002h-953.674c-15.135 0-27.405-12.271-27.405-27.397v-512.34c-56.667-23.065-96.67-78.609-96.67-143.569 0-55.262 29.138-103.433 72.66-130.883-73.897-31.914-125.667-105.396-125.667-191.016v-18.795h416.068v18.795c0 14.834-1.653 29.271-4.606 43.221 48.004 24.444 85.85 56.27 115.412 89.563h603.883c15.126 0 27.388 12.271 27.388 27.397v817.628c0 15.126-12.262 27.397-27.388 27.397zM325.837 773.137h689.769c15.135 0 27.405 12.271 27.405 27.397 0 15.135-12.271 27.397-27.405 27.397h-689.769c-15.126 0-27.397-12.262-27.397-27.397 0-15.126 12.271-27.397 27.397-27.397zM325.837 619.534h689.769c15.135 0 27.405 12.271 27.405 27.397s-12.271 27.397-27.405 27.397h-689.769c-15.126 0-27.397-12.271-27.397-27.397s12.271-27.397 27.397-27.397z" />
<glyph unicode="&#xe904;" horiz-adv-x="1047" d="M534.828 227.243v-89.453c29.35 5.916 51.732 33.332 71.416 74.86-22.401 8.362-42.066 13.433-71.416 14.594z" />
<glyph unicode="&#xe905;" horiz-adv-x="1047" d="M400.713 457.783h111.287v90.451c-29.35 0.776-70.379 9.053-104.102 20.852-6.578-34.917-6.558-81.953-7.184-111.303z" />
<glyph unicode="&#xe906;" horiz-adv-x="1047" d="M442.358 685.209c21.941-7.598 50.075-12.043 69.642-12.803v77.524c-19.567-3.809-49.98-27.491-69.642-64.721z" />
<glyph unicode="&#xe907;" horiz-adv-x="1047" d="M411.622 585.731c32.471-11.655 71.028-18.337 100.378-19.14v87.477c-19.567 0.783-51.363 5.821-75.789 14.515-10.657-23.774-17.705-51.813-24.589-82.853z" />
<glyph unicode="&#xe908;" horiz-adv-x="1047" d="M402.031 362.812c35.361 13.084 80.619 14.812 109.969 15.667v69.521h-111.322c0.274-29.35-1.833-59.816 1.353-85.188z" />
<glyph unicode="&#xe909;" horiz-adv-x="1047" d="M660.434 576.248c6.995-36.652 11.081-76.070 11.701-118.464h114.652c-1.869 65.223-19.169 117.421-47.453 164.619-23.634-18.65-50.169-34.271-78.9-46.155z" />
<glyph unicode="&#xe90a;" horiz-adv-x="1047" d="M433.527 229.444c25.757 9.738 58.906 15.376 78.473 16.231v114.44c-29.35-0.854-74.948-8.433-109.363-21.657 6.389-40.98 18.328-78.075 30.89-109.014z" />
<glyph unicode="&#xe90b;" horiz-adv-x="1047" d="M634.348 222.153c16.055-7.491 31.222-16.527 45.252-27.045 25.959 22.3 48.275 50.114 65.751 81.975-23.709 21.833-51.298 40.083-81.695 53.917-6.529-40.911-16.557-77.752-29.308-108.847z" />
<glyph unicode="&#xe90c;" horiz-adv-x="1047" d="M786.872 448h-114.701c-0.274-29.35-2.28-62.304-5.821-89.714 32.517-14.186 62.056-35.475 87.617-58.264 20.089 42.346 31.904 95.799 32.905 147.978z" />
<glyph unicode="&#xe90d;" horiz-adv-x="1047" d="M743.44 647.918c4.781 4.311 9.337 8.821 13.801 13.42-19.42 20.421-41.501 38.312-65.745 52.974-1.676-1.422-3.3-2.88-5.012-4.249 21.38-17.545 40.559-38.459 56.956-62.144z" />
<glyph unicode="&#xe90e;" horiz-adv-x="1047" d="M249.276 448h-37.096c1.451-81.529 22.394-130.671 57.253-180.25 5.449 6.49 11.156 15.696 17.16 21.742-22.818 45.979-36.264 83.502-37.317 158.508z" />
<glyph unicode="&#xe90f;" horiz-adv-x="1047" d="M300.991 633.938c-5.188 4.585-10.149 10.158-14.998 15.076-43.918-52.306-71.171-103.179-73.702-191.23h37.073c1.927 65.223 20.764 125.698 51.627 176.154z" />
<glyph unicode="&#xe910;" horiz-adv-x="1047" d="M368.007 710.062c-1.432 1.154-2.808 2.394-4.236 3.604-24.217-14.789-46.237-32.765-65.595-53.281 4.174-4.269 8.437-8.459 12.878-12.471 16.397 23.689 35.582 44.603 56.953 62.148z" />
<glyph unicode="&#xe911;" horiz-adv-x="1047" d="M371.764 168.817c8.874-5.058 18.005-9.695 27.394-13.892-8.358 5.091-16.466 10.644-24.299 16.655-1.063-0.903-2.058-1.833-3.095-2.762z" />
<glyph unicode="&#xe912;" horiz-adv-x="1047" d="M389.798 183.218c24.155-17.871 50.952-31.154 79.539-38.879-15.575 14.848-29.663 35.605-41.766 61.032-13.312-6.226-25.942-13.658-37.774-22.153z" />
<glyph unicode="&#xe913;" horiz-adv-x="1047" d="M295.623 263.726c-5.205-5.453-10.132-11.114-14.874-16.906 21.083-26.471 46.292-49.478 74.7-68.050 1.673 1.529 3.307 3.121 5.012 4.605-25.31 22.251-47.254 49.449-64.838 80.351z" />
<glyph unicode="&#xe914;" horiz-adv-x="1047" d="M512 137.161v90.171c-19.567-0.815-51.542-5.906-75.026-14.682 20.568-43.37 55.459-71.305 75.026-75.489z" />
<glyph unicode="&#xe915;" horiz-adv-x="1047" d="M671.402 698.795c-13.041-9.001-26.963-16.779-41.586-23.242 10.804-24.038 19.847-51.999 26.807-82.924 26.533 11.313 51.004 25.975 72.799 43.403-16.534 24.211-36.085 45.415-58.019 62.764z" />
<glyph unicode="&#xe916;" horiz-adv-x="1047" d="M398.616 731.942c-6.014-2.7-11.929-5.586-17.724-8.619 0.704-0.574 1.37-1.164 2.087-1.719 5.104 3.652 10.322 7.083 15.637 10.338z" />
<glyph unicode="&#xe917;" horiz-adv-x="1047" d="M694.037 183.374c1.97-1.706 3.848-3.529 5.772-5.299 28.44 18.425 53.727 41.267 74.886 67.604-5.012 6.203-10.276 12.229-15.82 18.044-17.581-30.899-39.525-58.097-64.838-80.348z" />
<glyph unicode="&#xe918;" horiz-adv-x="1047" d="M649.842 151.669c11.58 4.84 22.782 10.39 33.622 16.514-1.285 1.115-2.518 2.293-3.832 3.395-9.526-7.331-19.492-13.948-29.791-19.909z" />
<glyph unicode="&#xe919;" horiz-adv-x="1047" d="M1012.707 545.834h-111.929c-7.784 39.134-18.324 56.066-31.32 79.967l78.786 80.805c12.187 12.184 15.787 29.376 8.022 37.128l-126.396 126.885c-7.758 7.758-23.93 4.429-36.114-7.755l-84.721-78.108c-25.003 13.817-43.761 25.065-86.156 33.163v109.65c0 17.235 4.037 32.432-6.923 32.432h-177.292c-10.974 0-14.714-15.197-14.714-32.432v-109.878c-39.134-7.912-55.583-18.677-79.895-31.969l-78.665 77.387c-12.197 12.184-29.008 15.777-36.763 8.032l-126.725-126.402c-7.755-7.771-4.318-23.93 7.872-36.101l77.152-81.291c-13.387-24.354-24.305-42.379-32.276-81.512h-109.506c-17.235 0-45.144-0.815-45.144-11.783v-177.279c0-10.977 27.909-3.346 45.144-3.346h108.952c8.101-42.395 19.306-63.335 33.228-88.508l-77.72-81.852c-12.184-12.177-15.781-30.42-8.019-38.165l126.396-127.426c7.752-7.752 23.924-4.68 36.107 7.514l80.828 77.974c24.057-13.084 39.897-23.914 79.031-31.724v-111.228c0-17.248 3.741-24.012 14.714-24.012h177.292c10.961 0 6.923 6.764 6.923 24.012v110.974c42.395 8 60.53 18.993 85.299 32.585l82.337-79.096c12.19-12.197 29.98-15.797 37.738-8.026l127.204 126.409c7.765 7.745 4.572 23.898-7.625 36.088l-79.060 87.536c13.521 24.7 24.641 44.551 32.572 86.945h111.362c17.235 0 34.121-7.631 34.121 3.343v177.279c0.003 10.97-16.883 11.786-34.118 11.786zM529.039 87.79c-196.164 0-355.758 159.597-355.758 355.758 0 196.171 159.594 355.758 355.758 355.758s355.765-159.587 355.765-355.758c-0.003-196.161-159.601-355.758-355.765-355.758z" />
<glyph unicode="&#xe91a;" horiz-adv-x="1047" d="M626.916 205.371c-12.089-25.427-26.171-46.184-41.762-61.032 28.597 7.726 55.387 21.005 79.539 38.879-11.822 8.495-24.455 15.927-37.777 22.153z" />
<glyph unicode="&#xe91b;" horiz-adv-x="1047" d="M529.039 782.375c-186.831 0-338.827-151.999-338.827-338.827s151.996-338.827 338.827-338.827c186.834 0 338.833 151.999 338.833 338.827s-151.999 338.827-338.833 338.827zM529.039 115.282c-181.007 0-328.267 147.26-328.267 328.267 0 181.013 147.26 328.26 328.267 328.26 181.013 0 328.267-147.247 328.267-328.26 0-181.007-147.257-328.267-328.267-328.267z" />
<glyph unicode="&#xe91c;" horiz-adv-x="1047" d="M805.141 457.783h38.919c-2.56 88.051-30.153 139.036-74.573 191.468-5.156-5.257-10.439-9.673-15.967-14.59 30.85-50.456 49.69-111.655 51.621-176.878z" />
<glyph unicode="&#xe91d;" horiz-adv-x="1047" d="M767.918 286.577c6.362-6.392 12.418-10.181 18.171-17.079 35.344 49.788 56.617 96.973 58.071 178.502h-38.941c-1.047-75.006-14.486-115.428-37.301-161.423z" />
<glyph unicode="&#xe91e;" horiz-adv-x="1047" d="M655.578 710.301c-21.713 14.656-45.382 25.695-70.424 32.465 13.426-12.79 25.73-29.957 36.616-50.721 11.805 5.179 23.095 11.313 33.808 18.256z" />
<glyph unicode="&#xe91f;" horiz-adv-x="1047" d="M644.253 338.458c-33.352 12.823-73.552 20.337-109.425 21.579v-114.453c29.35-1.177 54.973-6.796 79.657-16.139 12.565 30.938 23.382 68.034 29.768 109.014z" />
<glyph unicode="&#xe920;" horiz-adv-x="1047" d="M674.317 723.906c-7.843 4.096-15.856 7.918-24.067 11.349 7.266-4.204 14.372-8.733 21.266-13.651 0.956 0.74 1.859 1.549 2.801 2.302z" />
<glyph unicode="&#xe921;" horiz-adv-x="1047" d="M534.828 749.33v-76.81c26.089 1.076 45.18 5.472 66.038 12.689-18.742 35.471-39.949 58.72-66.038 64.121z" />
<glyph unicode="&#xe922;" horiz-adv-x="1047" d="M653.824 448h-118.996v-69.619c35.873-1.177 77.716-2.867 112.014-15.569 3.193 25.372 6.711 55.837 6.982 85.188z" />
<glyph unicode="&#xe923;" horiz-adv-x="1047" d="M640.959 569.086c-32.638-11.434-70.258-19.652-106.131-20.774v-90.529h118.957c-0.633 29.35-6.252 76.386-12.826 111.303z" />
<glyph unicode="&#xe924;" horiz-adv-x="1047" d="M610.679 668.587c-23.337-8.306-46.501-13.345-75.851-14.447v-87.484c35.873 1.164 70.16 7.814 101.578 19.078-6.897 31.036-15.063 59.076-25.727 82.853z" />
<glyph unicode="&#xe925;" horiz-adv-x="1047" d="M469.338 742.765c-25.039-6.77-48.699-17.809-70.428-32.465 10.71-6.943 22.013-13.077 33.815-18.256 10.892 20.764 23.203 37.93 36.613 50.721z" />
<glyph unicode="&#xe926;" horiz-adv-x="1047" d="M394.070 576.254c-28.74 11.887-55.273 27.478-78.897 46.132-28.284-47.182-45.588-99.38-47.459-164.603h114.655c0.616 42.395 4.699 81.835 11.701 118.471z" />
<glyph unicode="&#xe927;" horiz-adv-x="1047" d="M300.537 299.709c25.558 22.792 55.104 44.71 87.62 58.883-3.555 27.387-5.56 60.057-5.828 89.408h-114.711c1.008-52.178 12.826-105.935 32.918-148.291z" />
<glyph unicode="&#xe928;" horiz-adv-x="1047" d="M383.097 698.795c-21.925-17.349-41.482-38.553-58.013-62.764 21.794-17.428 46.266-32.090 72.792-43.403 6.95 30.922 16.009 58.887 26.82 82.924-14.652 6.467-28.561 14.245-41.599 23.242z" />
<glyph unicode="&#xe929;" horiz-adv-x="1047" d="M374.905 195.108c14.023 10.517 29.204 19.554 45.245 27.045-12.745 31.095-22.773 67.936-29.295 108.847-30.407-13.834-57.999-32.083-81.708-53.917 17.476-31.861 39.796-59.676 65.758-81.975z" />
<glyph unicode="&#xe92a;" glyph-name="testimonial" horiz-adv-x="1074" d="M837.299 480.661h-197.355c-14.97 0-27.088 12.475-27.088 27.877 0 15.555 12.118 28.081 27.088 28.081h197.355c15.021 0 27.19-12.526 27.19-28.081 0-15.402-12.169-27.877-27.19-27.877zM837.299 304.258h-612.406c-15.021 0-27.139 12.5-27.139 27.852 0 15.581 12.118 28.055 27.139 28.055h612.406c15.021 0 27.19-12.475 27.19-28.055 0-15.352-12.169-27.852-27.19-27.852zM837.299 139.847h-612.406c-15.021 0-27.139 12.526-27.139 27.877 0 15.581 12.118 28.081 27.139 28.081h612.406c15.021 0 27.19-12.5 27.19-28.081 0-15.352-12.169-27.877-27.19-27.877zM238.87 544.562c26.859 11.635 62.501 34.318 79.329 40.759l2.546 21.156c-9.929 12.526-11.074 23.244-15.733 41.574-3.793 2.215-6.568 5.983-7.434 10.362l-5.703 32.74c-0.331 4.837 2.011 9.038 5.652 11.38 0 48.855 18.025 80.475 67.567 80.475s67.593-31.62 67.593-80.475c3.666-2.342 5.957-6.543 5.677-11.38l-5.677-32.74c-0.942-4.379-3.717-8.147-7.459-10.362-4.71-18.33-5.855-29.048-15.733-41.574l2.495-21.156c16.828-6.441 52.47-29.125 79.329-40.759 22.887-9.852 39.512-21.996 37.017-47.608-1.324-13.442-6.747-20.978-6.747-20.978h-313.013c0 0-5.448 7.536-6.721 20.978-2.495 25.611 14.155 37.755 37.017 47.608zM653.87 690.745h180.781c14.868 0 27.164-12.577 27.164-28.030 0-15.428-12.296-27.954-27.164-27.954h-180.781c-15.071 0-27.113 12.526-27.113 27.954 0 15.453 12.042 28.030 27.113 28.030zM971.212 959.995h-856.096c-63.315-0.076-114.92-52.547-115.124-116.982v-789.852c0.204-64.487 51.808-116.982 114.971-117.16h844.054c63.341 0.178 114.869 52.674 115.073 117.033v802.353c-0.204 64.487-39.614 104.533-102.878 104.609z" />
</font>
</defs>
</svg>
