<?xml version="1.0" standalone="no"?>
<!DOCTYPE svg PUBLIC "-//W3C//DTD SVG 1.1//EN" "http://www.w3.org/Graphics/SVG/1.1/DTD/svg11.dtd" >
<svg xmlns="http://www.w3.org/2000/svg" xmlns:xlink="http://www.w3.org/1999/xlink" version="1.1">
<metadata>
Created by FontForge 20161003 at Thu Sep 28 15:57:02 2017
 By www-data
Copyright (C) 2004 Hoefler &#38; Frere-Jones Typography, Inc. www.typography.com
</metadata>
<defs>
<font id="WhitneyMedium" horiz-adv-x="527" >
  <font-face 
    font-family="WhitneyMedium"
    font-weight="500"
    font-stretch="normal"
    units-per-em="1000"
    panose-1="2 0 6 3 4 0 0 2 0 4"
    ascent="800"
    descent="-200"
    x-height="477"
    cap-height="690"
    bbox="-79 -200 988 951"
    underline-thickness="20"
    underline-position="-163"
    unicode-range="U+0020-FB02"
  />
<missing-glyph horiz-adv-x="500" 
 />
    <glyph glyph-name=".notdef" horiz-adv-x="500" 
 />
    <glyph glyph-name=".null" horiz-adv-x="0" 
 />
    <glyph glyph-name="nonmarkingreturn" horiz-adv-x="220" 
 />
    <glyph glyph-name="space" unicode=" " horiz-adv-x="220" 
 />
    <glyph glyph-name="exclam" unicode="!" horiz-adv-x="272" 
d="M190 690h-107l24 -485l58 13zM186 0v119h-100v-119h100z" />
    <glyph glyph-name="quotedbl" unicode="&#x22;" horiz-adv-x="409" 
d="M346 676h-102l25 -196l52 -12zM164 676h-101l24 -196l53 -12z" />
    <glyph glyph-name="numbersign" unicode="#" horiz-adv-x="661" 
d="M219 172h169l-27 -174h70l27 174h142l-13 76h-116l28 180h120v76h-108l26 164l-68 15l-28 -179h-169l28 174h-71l-28 -174h-140l13 -76h115l-28 -180h-120v-76h108l-26 -164l68 -15zM260 428h169l-28 -180h-170z" />
    <glyph glyph-name="dollar" unicode="$" 
d="M351 673l11 67l-66 15l-12 -75h-13q-47 0 -86 -11t-67.5 -33.5t-44 -55.5t-15.5 -77q0 -36 10 -63.5t31 -48.5t53 -38t77 -33l-3.5 -25.5t-9 -60.5t-11 -72t-9.5 -60.5t-4 -25.5q-38 7 -72 20t-66 31l-12 -84q25 -13 59.5 -24t76.5 -17l-17 -110l64 -14l19 118h9
q109 0 168 50.5t59 138.5q0 74 -43 119t-134 77l3.5 23t8.5 54.5t10 64.5t8.5 53.5t3.5 22.5q29 -7 55 -17.5t47 -23.5l13 84q-20 10 -45.5 18t-55.5 13zM254 70l36 229q33 -12 53.5 -25.5t32.5 -28t16.5 -30.5t4.5 -35q0 -53 -33 -81.5t-104 -28.5h-6zM274 607
q0 -2 -3 -21.5t-8 -50.5t-9.5 -60.5t-8 -51l-3.5 -21.5q-59 22 -81 46t-22 63q0 45 30 70.5t90 25.5h15z" />
    <glyph glyph-name="percent" unicode="%" horiz-adv-x="900" 
d="M370 485q0 47 -12.5 84t-34.5 62.5t-52 39t-64 13.5t-64 -13.5t-52 -39t-34.5 -62.5t-12.5 -84t12.5 -83.5t34.5 -62.5t52 -39.5t64 -13.5t64 13.5t52 39.5t34.5 62.5t12.5 83.5zM699 666l-69 17l-429 -673l68 -17zM292 485q0 -28 -5 -53t-15 -43.5t-26.5 -29
t-38.5 -10.5t-38 11t-26.5 29.5t-15.5 43t-5 52.5q0 57 20 96.5t65 39.5q22 0 38 -10.5t26.5 -29t15.5 -43.5t5 -53zM855 191q0 47 -12.5 84t-34.5 62.5t-52 39t-64 13.5t-64 -13.5t-52 -39t-34.5 -62.5t-12.5 -84t12.5 -83.5t34.5 -62.5t52 -39.5t64 -13.5t64 13.5t52 39.5
t34.5 62.5t12.5 83.5zM777 191q0 -28 -5 -53t-15 -43.5t-26.5 -29t-38.5 -10.5t-38 11t-26.5 29.5t-15.5 43t-5 52.5q0 57 20 96.5t65 39.5q22 0 38 -10.5t26.5 -29t15.5 -43.5t5 -53z" />
    <glyph glyph-name="ampersand" unicode="&#x26;" horiz-adv-x="681" 
d="M683 17l-149 149q26 46 43 100.5t28 116.5l-82 18q-15 -106 -48 -176l-190 190q-36 36 -52.5 63.5t-16.5 59.5q0 37 23 60t71 23q38 0 77 -14.5t79 -40.5l15 94q-35 20 -77.5 31.5t-92.5 11.5q-45 0 -80 -13.5t-59 -36.5t-36.5 -53t-12.5 -64q0 -49 18 -83.5t51 -69.5
q-70 -34 -113.5 -85t-43.5 -125q0 -90 59.5 -138t167.5 -48q69 0 125 27.5t98 78.5l101 -99zM429 149q-69 -82 -166 -82q-60 0 -97 32.5t-37 83.5q0 45 30.5 82.5t86.5 63.5z" />
    <glyph glyph-name="quotesingle" unicode="'" horiz-adv-x="227" 
d="M164 676h-101l24 -196l53 -12z" />
    <glyph glyph-name="parenleft" unicode="(" horiz-adv-x="406" 
d="M363 -75q-55 50 -94 97t-63.5 94t-35.5 95t-11 100q0 107 41.5 187t130.5 144l-14 84q-123 -78 -188 -179t-65 -234q0 -63 13.5 -117.5t40.5 -103.5t66.5 -94.5t92.5 -91.5z" />
    <glyph glyph-name="parenright" unicode=")" horiz-adv-x="406" 
d="M341 314q0 63 -13.5 117.5t-40 103.5t-66.5 95t-92 92l-86 -19q55 -50 94 -97.5t63.5 -94t35.5 -94.5t11 -100q0 -108 -42 -187.5t-131 -144.5l15 -84q123 78 187.5 179t64.5 234z" />
    <glyph glyph-name="asterisk" unicode="*" horiz-adv-x="400" 
d="M359 569l-10 29l-119 -21l-14 118h-33l-14 -118l-118 21l-10 -29l108 -52l-57 -107l25 -17l83 87l82 -87l26 17l-58 107z" />
    <glyph glyph-name="plus" unicode="+" horiz-adv-x="572" 
d="M518 301v74h-193v199h-78v-199h-193v-74h193v-199h78v199h193z" />
    <glyph glyph-name="comma" unicode="," horiz-adv-x="227" 
d="M180 119h-103l-50 -240l49 -12z" />
    <glyph glyph-name="hyphen" unicode="-" horiz-adv-x="354" 
d="M300 241v87h-246v-87h246z" />
    <glyph glyph-name="period" unicode="." horiz-adv-x="227" 
d="M163 0v119h-99v-119h99z" />
    <glyph glyph-name="slash" unicode="/" horiz-adv-x="536" 
d="M515 682l-80 17l-472 -809l80 -17z" />
    <glyph glyph-name="zero" unicode="0" horiz-adv-x="619" 
d="M568 338q0 84 -18.5 149.5t-52.5 110t-81.5 68t-105.5 23.5t-106 -23.5t-82 -68t-52.5 -110t-18.5 -149.5t18.5 -149.5t52.5 -110t82 -68t106 -23.5t105.5 23.5t81.5 68t52.5 110t18.5 149.5zM476 338q0 -133 -44 -202.5t-122 -69.5t-122.5 69.5t-44.5 202.5t44.5 202.5
t122.5 69.5t122 -69.5t44 -202.5z" />
    <glyph glyph-name="one" unicode="1" horiz-adv-x="357" 
d="M262 0v678h-78l-162 -75l10 -72l141 53v-584h89z" />
    <glyph glyph-name="two" unicode="2" horiz-adv-x="534" 
d="M485 0l-12 80h-311l193 196q31 32 53.5 59t37.5 53t22 52.5t7 57.5q0 88 -56 139.5t-155 51.5q-63 0 -113.5 -22t-88.5 -54l13 -87q40 35 85.5 57.5t98.5 22.5q60 0 91.5 -28.5t31.5 -85.5q0 -41 -21 -77.5t-67 -84.5l-250 -261v-69h441z" />
    <glyph glyph-name="three" unicode="3" horiz-adv-x="514" 
d="M468 185q0 71 -35.5 112t-101.5 59q55 18 89.5 55.5t34.5 100.5q0 34 -12 66t-38.5 56.5t-67 39.5t-97.5 15q-63 0 -110 -16.5t-86 -45.5l13 -84q38 30 82 47.5t97 17.5q64 0 95.5 -28t31.5 -72q0 -55 -40 -84t-125 -29h-51l13 -80h31q98 0 141.5 -34.5t43.5 -96.5
q0 -57 -38.5 -86.5t-105.5 -29.5q-54 0 -97.5 15.5t-86.5 44.5l-15 -88q39 -24 89.5 -38.5t104.5 -14.5q55 0 100 14t76 40t48 62.5t17 81.5z" />
    <glyph glyph-name="four" unicode="4" horiz-adv-x="589" 
d="M564 153v74h-108v451h-107l-314 -459v-66h338v-153h83v153h108zM373 227h-242l242 350v-350z" />
    <glyph glyph-name="five" unicode="5" 
d="M486 212q0 46 -15.5 83.5t-44.5 64.5t-70 41.5t-93 14.5q-36 0 -62 -5.5t-46 -11.5l15 197h293l-12 80h-356l-24 -346l67 -15q23 10 50 16t65 6q70 0 106.5 -35t36.5 -95q0 -37 -12.5 -63.5t-34.5 -44t-51.5 -25.5t-63.5 -8q-51 0 -96 16t-81 42l-14 -85q36 -23 82 -37.5
t106 -14.5q54 0 100.5 14.5t81 43t54 70.5t19.5 97z" />
    <glyph glyph-name="six" unicode="6" horiz-adv-x="564" 
d="M145 361q11 54 37.5 94.5t63.5 70.5t83.5 50t98.5 33l-12 80q-81 -20 -148 -54.5t-115.5 -85.5t-75.5 -119.5t-27 -156.5q0 -70 18 -123.5t50.5 -89.5t77 -54.5t97.5 -18.5q50 0 93 16.5t74 45.5t48.5 69.5t17.5 88.5q0 96 -56 151.5t-154 55.5q-51 0 -93 -14.5
t-78 -38.5zM137 276q71 59 159 59q73 0 106.5 -35t33.5 -97q0 -65 -39 -101t-101 -36q-73 0 -115.5 57t-43.5 153z" />
    <glyph glyph-name="seven" unicode="7" horiz-adv-x="528" 
d="M483 606v70h-448l12 -81h335l-258 -582l88 -20z" />
    <glyph glyph-name="eight" unicode="8" horiz-adv-x="568" 
d="M309 386q-41 17 -69.5 31t-46.5 28t-26 31t-8 40q0 41 31.5 69t94.5 28q61 0 93.5 -25.5t32.5 -69.5q0 -39 -28 -73t-74 -59zM261 323q48 -20 81 -35.5t53 -32t29 -35.5t9 -46q0 -51 -41 -81t-107 -30t-108 29.5t-42 84.5q0 46 34.5 83t91.5 63zM186 356
q-62 -32 -101.5 -77.5t-39.5 -105.5q0 -38 15.5 -71.5t45.5 -59t74.5 -40.5t102.5 -15q55 0 99.5 14t76 39t48 58.5t16.5 72.5q0 36 -9.5 63.5t-28 49t-45 38.5t-59.5 33q49 28 83.5 68t34.5 97q0 36 -14.5 67t-42 53.5t-67 35.5t-88.5 13t-88.5 -13t-68 -36.5t-44 -55.5
t-15.5 -69q0 -31 8.5 -55t23.5 -42.5t36 -33.5t47 -28z" />
    <glyph glyph-name="nine" unicode="9" horiz-adv-x="564" 
d="M416 304q-13 -52 -40.5 -91.5t-65.5 -68t-85 -47.5t-99 -30l13 -80q82 18 151 52t119 86t77.5 121.5t27.5 156.5q0 70 -18 123.5t-50.5 89.5t-77.5 54.5t-98 18.5q-50 0 -92.5 -16.5t-73.5 -46.5t-48.5 -71t-17.5 -90q0 -99 55.5 -155.5t154.5 -56.5q48 0 90.5 14
t77.5 37zM427 391q-35 -29 -74.5 -44t-85.5 -15q-72 0 -105.5 36t-33.5 101q0 68 38.5 104.5t101.5 36.5q36 0 65.5 -15t50 -42.5t32 -67t11.5 -87.5v-7z" />
    <glyph glyph-name="colon" unicode=":" horiz-adv-x="236" 
d="M168 358v119h-100v-119h100zM168 0v119h-100v-119h100z" />
    <glyph glyph-name="semicolon" unicode=";" horiz-adv-x="236" 
d="M175 358v119h-100v-119h100zM178 119h-103l-50 -240l49 -12z" />
    <glyph glyph-name="less" unicode="&#x3c;" horiz-adv-x="572" 
d="M504 82v87l-355 170l355 169v86l-447 -222v-68z" />
    <glyph glyph-name="equal" unicode="=" horiz-adv-x="590" 
d="M518 410v80h-445v-80h445zM518 186v80h-445v-80h445z" />
    <glyph glyph-name="greater" unicode="&#x3e;" horiz-adv-x="572" 
d="M515 304v68l-447 222v-87l355 -170l-355 -169v-86z" />
    <glyph glyph-name="question" unicode="?" horiz-adv-x="518" 
d="M463 526q0 41 -15 73.5t-42 55.5t-64.5 35.5t-83.5 12.5q-62 0 -115 -20t-99 -54l13 -92q42 35 89.5 58t106.5 23q51 0 83.5 -25t32.5 -71q0 -48 -32.5 -77t-103.5 -58l-41 -17l13 -165l58 13l9 99q45 20 80 40t60 44t38 54t13 71zM284 0v119h-100v-119h100z" />
    <glyph glyph-name="at" unicode="@" horiz-adv-x="836" 
d="M476 194q-34 -42 -59 -61t-51 -19q-24 0 -36.5 17t-12.5 55q0 44 11 79.5t29.5 60.5t41.5 38.5t47 13.5q19 0 30.5 -2.5t27.5 -7.5zM481 131q11 -41 44.5 -61.5t78.5 -20.5q41 0 74 18t56.5 51.5t36 80.5t12.5 105q0 74 -23 133.5t-65.5 101.5t-102 65t-132.5 23
q-87 0 -161.5 -35t-129.5 -95.5t-86.5 -141t-31.5 -171.5q0 -78 23.5 -138t66 -101.5t103 -63t135.5 -21.5q71 0 127 14t100 34l-6 36q-46 -23 -99 -36t-118 -13q-62 0 -114.5 17t-91 52.5t-60.5 90.5t-22 130q0 88 29 162.5t78 128.5t114.5 84.5t139.5 30.5q60 0 112 -18
t90 -54t60 -90t22 -126q0 -101 -35.5 -154t-88.5 -53q-31 0 -48 17t-17 47q0 12 1 27t3 25l31 203q-32 11 -64.5 18t-67.5 7q-41 0 -79.5 -19t-68.5 -53.5t-48 -83t-18 -108.5q0 -33 9 -57t23.5 -39.5t33.5 -23t39 -7.5q36 0 67 19.5t69 62.5z" />
    <glyph glyph-name="A" unicode="A" horiz-adv-x="688" 
d="M659 13l-266 680h-94l-270 -693h95l78 207h285l81 -214zM455 290h-221l110 291z" />
    <glyph glyph-name="B" unicode="B" horiz-adv-x="545" 
d="M503 202q0 69 -35.5 109t-93.5 57q47 20 73 55t26 88q0 40 -13.5 73t-41 56.5t-69.5 36.5t-99 13h-167v-690h165q120 0 187.5 49t67.5 153zM381 508q0 -51 -35.5 -79.5t-104.5 -28.5h-66v210h73q71 0 102 -27t31 -75zM411 200q0 -60 -40.5 -90t-115.5 -30h-80v243h77
q78 0 118.5 -31.5t40.5 -91.5z" />
    <glyph glyph-name="C" unicode="C" horiz-adv-x="646" 
d="M583 54l-14 89q-42 -30 -90 -49.5t-104 -19.5q-52 0 -93.5 19t-70 54t-44 85.5t-15.5 112.5t15 112.5t44 86t70 54.5t94 19q56 0 100.5 -19t82.5 -48l14 96q-40 27 -87 42t-109 15q-73 0 -132 -26t-101 -73.5t-65 -113.5t-23 -146t22.5 -145.5t64 -112.5t100.5 -73
t132 -26q60 0 114.5 19t94.5 48z" />
    <glyph glyph-name="D" unicode="D" horiz-adv-x="703" 
d="M646 346q0 76 -23 139t-68.5 108.5t-113.5 71t-158 25.5h-200v-690h196q89 0 157.5 25t115 71t70.5 109.5t24 140.5zM549 345q0 -66 -18 -115t-52.5 -81t-84 -48t-111.5 -16h-106v520h109q59 0 107.5 -16.5t83 -49t53.5 -81t19 -113.5z" />
    <glyph glyph-name="E" unicode="E" horiz-adv-x="502" 
d="M465 0v86h-288v232h230l-14 86h-216v200h278v86h-372v-690h382z" />
    <glyph glyph-name="F" unicode="F" horiz-adv-x="478" 
d="M442 604v86h-359v-690h94v307h222l-14 86h-208v211h265z" />
    <glyph glyph-name="G" unicode="G" horiz-adv-x="697" 
d="M624 54v323h-265l13 -86h159v-183q-30 -17 -62.5 -25.5t-77.5 -8.5q-59 0 -104 19t-75 54t-45 85.5t-15 112.5t14.5 112.5t43.5 86t72 54.5t100 19q61 0 109.5 -19.5t86.5 -49.5l15 96q-41 27 -91 43t-119 16q-77 0 -138 -26t-103 -73.5t-64.5 -113.5t-22.5 -146
t21.5 -145.5t64 -112.5t105.5 -73t145 -26q69 0 128.5 19t104.5 48z" />
    <glyph glyph-name="H" unicode="H" horiz-adv-x="703" 
d="M620 0v690h-94v-286h-349v286h-94v-690h94v318h349v-318h94z" />
    <glyph glyph-name="I" unicode="I" horiz-adv-x="272" 
d="M183 0v690h-94v-690h94z" />
    <glyph glyph-name="J" unicode="J" horiz-adv-x="370" 
d="M293 170v520h-94v-512q0 -55 -26 -79t-74 -24q-25 0 -42.5 2t-34.5 7l14 -85q13 -2 29 -4t33 -2q88 0 141.5 42.5t53.5 134.5z" />
    <glyph glyph-name="K" unicode="K" horiz-adv-x="609" 
d="M600 15l-321 355l303 320h-113l-292 -310v310h-94v-690h94v350l325 -357z" />
    <glyph glyph-name="L" unicode="L" horiz-adv-x="468" 
d="M439 0l-13 86h-249v604h-94v-690h356z" />
    <glyph glyph-name="M" unicode="M" horiz-adv-x="900" 
d="M835 0l-54 690h-115l-215 -566l-215 566h-116l-55 -690h88l42 549l218 -552h71l218 552l43 -549h90z" />
    <glyph glyph-name="N" unicode="N" horiz-adv-x="703" 
d="M620 0v690h-87v-517l-366 517h-84v-690h87v537l379 -537h71z" />
    <glyph glyph-name="O" unicode="O" horiz-adv-x="746" 
d="M691 346q0 80 -22 145.5t-63.5 112.5t-100 73t-131.5 26t-132 -26t-100.5 -73.5t-64 -113.5t-22.5 -146t22 -145.5t63.5 -112.5t100 -73t131.5 -26t132 26t100.5 73.5t64 113.5t22.5 146zM594 345q0 -62 -15.5 -112.5t-44 -86t-69.5 -54.5t-92 -19t-92 19t-69.5 54.5
t-44 86t-15.5 112.5t15.5 112.5t44 86t69.5 54.5t92 19t92 -19t69.5 -54.5t44 -86t15.5 -112.5z" />
    <glyph glyph-name="P" unicode="P" horiz-adv-x="536" 
d="M500 491q0 97 -62 148t-172 51h-183v-690h94v280h73q56 0 102 13t79 39.5t51 66t18 92.5zM405 488q0 -65 -39.5 -95t-110.5 -30h-78v244h84q71 0 107.5 -29.5t36.5 -89.5z" />
    <glyph glyph-name="Q" unicode="Q" horiz-adv-x="746" 
d="M691 346q0 80 -22 145.5t-63.5 112.5t-100 73t-131.5 26t-132 -26t-100.5 -73.5t-64 -113.5t-22.5 -146q0 -263 229 -348l373 -139l19 83l-198 70q48 16 87.5 45.5t67 72t43 97.5t15.5 121zM594 345q0 -62 -15.5 -113t-44 -87.5t-69.5 -56.5t-92 -20t-92 20t-69.5 56.5
t-44 87.5t-15.5 113t15.5 112.5t44 86t69.5 54.5t92 19t92 -19t69.5 -54.5t44 -86t15.5 -112.5z" />
    <glyph glyph-name="R" unicode="R" horiz-adv-x="570" 
d="M406 489q0 -59 -40 -89t-109 -30h-80v237h90q69 0 104 -30.5t35 -87.5zM349 303q68 19 109.5 66t41.5 125q0 95 -61.5 145.5t-167.5 50.5h-188v-690h94v291h71l211 -298l95 21z" />
    <glyph glyph-name="S" unicode="S" horiz-adv-x="512" 
d="M464 186q0 39 -9.5 68.5t-30.5 53.5t-55.5 45t-84.5 44q-39 18 -64.5 32.5t-40.5 28.5t-20.5 29.5t-5.5 35.5q0 38 27 65.5t87 27.5q42 0 79 -14.5t66 -36.5l15 94q-30 17 -68 28t-89 11q-47 0 -85.5 -13t-66.5 -36.5t-43 -57t-15 -75.5q0 -37 9.5 -65t31 -50.5t55.5 -43
t83 -42.5q39 -18 64.5 -32.5t40.5 -29.5t21 -32.5t6 -41.5q0 -51 -34.5 -78t-88.5 -27q-52 0 -99 18t-82 41l-14 -96q38 -20 87 -32.5t106 -12.5q48 0 88.5 13.5t69 39t44.5 61t16 80.5z" />
    <glyph glyph-name="T" unicode="T" horiz-adv-x="600" 
d="M573 604l-14 86h-526v-86h220v-604h94v604h226z" />
    <glyph glyph-name="U" unicode="U" horiz-adv-x="689" 
d="M613 266v424h-94v-420q0 -94 -44 -145.5t-132 -51.5q-89 0 -131 55t-42 145v417h-94v-429q0 -63 18 -113.5t52.5 -86.5t84 -55t112.5 -19t113 19t85 55t53.5 88t18.5 117z" />
    <glyph glyph-name="V" unicode="V" horiz-adv-x="677" 
d="M648 690h-99l-211 -567l-215 574l-94 -20l266 -680h84z" />
    <glyph glyph-name="W" unicode="W" horiz-adv-x="1017" 
d="M982 690h-96l-153 -542l-176 542h-94l-176 -542l-156 549l-92 -20l204 -677h78l187 559l187 -559h79z" />
    <glyph glyph-name="X" unicode="X" horiz-adv-x="636" 
d="M266 359l-240 -359h103l187 287l194 -294l96 20l-237 351l218 326h-104l-164 -254l-172 261l-95 -20z" />
    <glyph glyph-name="Y" unicode="Y" horiz-adv-x="636" 
d="M614 690h-104l-193 -330l-198 337l-94 -20l244 -403v-274h94v274z" />
    <glyph glyph-name="Z" unicode="Z" horiz-adv-x="605" 
d="M563 0l-13 82h-389l393 538v70h-489l13 -82h363l-393 -538v-70h515z" />
    <glyph glyph-name="bracketleft" unicode="[" horiz-adv-x="409" 
d="M363 -104l-11 69h-179v657h186v68h-272v-794h276z" />
    <glyph glyph-name="backslash" unicode="\" horiz-adv-x="536" 
d="M573 -111l-472 809l-80 -17l472 -809z" />
    <glyph glyph-name="bracketright" unicode="]" horiz-adv-x="409" 
d="M321 -104v794h-276l11 -68h180v-657h-186v-69h271z" />
    <glyph glyph-name="asciicircum" unicode="^" horiz-adv-x="454" 
d="M363 554l-94 134h-84l-100 -141h56l85 71l88 -74z" />
    <glyph glyph-name="underscore" unicode="_" horiz-adv-x="454" 
d="M456 -104v70h-458v-70h458z" />
    <glyph glyph-name="grave" unicode="`" horiz-adv-x="454" 
d="M317 547l-86 151l-108 -24l134 -127h60z" />
    <glyph glyph-name="a" unicode="a" horiz-adv-x="499" 
d="M431 0v334q0 80 -42 116.5t-130 36.5q-56 0 -99 -11.5t-86 -28.5l12 -77q39 17 80 29t85 12q42 0 66.5 -18t24.5 -63v-20q-75 -8 -131 -21.5t-94 -35.5t-57 -53.5t-19 -76.5q0 -61 37.5 -97t102.5 -36q59 0 99 22.5t69 51.5l10 -64h72zM342 131q-30 -31 -66.5 -49
t-75.5 -18q-34 0 -52.5 17.5t-18.5 46.5q0 18 8.5 36t32 33t65 27t107.5 18v-111z" />
    <glyph glyph-name="b" unicode="b" horiz-adv-x="533" 
d="M490 252q0 60 -15 104t-40.5 73t-59.5 43.5t-73 14.5q-49 0 -84 -20.5t-59 -45.5v301l-89 -14v-684q47 -14 89.5 -22t96.5 -8q52 0 95 16t74 48t48 80.5t17 113.5zM400 248q0 -93 -37.5 -135.5t-107.5 -42.5q-33 0 -53 4t-43 12v244q27 34 59.5 56t70.5 22q48 0 79.5 -41
t31.5 -119z" />
    <glyph glyph-name="c" unicode="c" horiz-adv-x="469" 
d="M428 41l-13 80q-37 -32 -70 -42.5t-69 -10.5q-63 0 -103 42t-40 129q0 84 37 127t96 43q42 0 76.5 -13t67.5 -40l13 87q-27 20 -65 32t-91 12q-47 0 -87.5 -16t-71 -47.5t-48 -78t-17.5 -107.5q0 -60 16.5 -106t46.5 -77.5t70.5 -48t88.5 -16.5t87 11.5t76 39.5z" />
    <glyph glyph-name="d" unicode="d" horiz-adv-x="538" 
d="M468 0v722l-89 -14v-246q-23 9 -54 15t-66 6q-44 0 -83 -16t-68.5 -48t-47 -80.5t-17.5 -113.5q0 -60 15 -104t40.5 -73.5t59.5 -43.5t73 -14q53 0 90.5 23.5t64.5 55.5l11 -69h71zM379 153q-29 -38 -61 -61t-74 -23q-48 0 -79.5 40.5t-31.5 119.5q0 89 36 134t93 45
q38 0 63.5 -6.5t53.5 -20.5v-228z" />
    <glyph glyph-name="e" unicode="e" horiz-adv-x="499" 
d="M456 248q0 49 -12 93t-37 76t-63.5 51t-90.5 19q-45 0 -83.5 -17t-66.5 -49t-44 -78t-16 -103q0 -66 17 -113t47 -77.5t70 -45t87 -14.5q60 0 106.5 17t84.5 47l-13 80q-39 -31 -79 -49.5t-92 -18.5q-63 0 -100 39.5t-39 123.5h324v19zM366 296h-230q11 62 42.5 91.5
t73.5 29.5q52 0 79 -31.5t35 -89.5z" />
    <glyph glyph-name="f" unicode="f" horiz-adv-x="311" 
d="M296 630l-13 81q-7 0 -15.5 1t-22.5 1q-32 0 -59 -7t-47 -23t-31 -40.5t-11 -60.5v-105h-72v-75h72v-402h87v402h107l-11 75h-96v96q0 33 17.5 47t48.5 14q14 0 26 -1t20 -3z" />
    <glyph glyph-name="g" unicode="g" horiz-adv-x="504" 
d="M183 37q14 -3 26.5 -5.5l32.5 -6.5l57 -10q51 -9 70.5 -24t19.5 -37q0 -30 -37.5 -51t-107.5 -21t-106 18.5t-36 47.5q0 25 19.5 46.5t61.5 42.5zM331 322q0 -43 -26.5 -72.5t-72.5 -29.5q-45 0 -71 28t-26 70q0 44 26 74t71 30t72 -28.5t27 -71.5zM355 447
q-51 40 -123 40q-36 0 -69.5 -11.5t-58.5 -33t-40 -52t-15 -69.5q0 -49 24.5 -85.5t64.5 -56.5q-50 -30 -50 -65q0 -29 30 -50q-51 -27 -76 -56.5t-25 -66.5q0 -32 17.5 -55t47.5 -38t70.5 -22.5t87.5 -7.5q46 0 88.5 9t74.5 27t51 45.5t19 65.5q0 56 -44 83t-120 41l-34 6
q-32 6 -51.5 9.5t-30.5 7.5t-15 8.5t-4 10.5q0 7 6.5 14.5t17.5 14.5q18 -3 36 -3q36 0 69.5 11.5t58.5 32.5t40 51.5t15 68.5q0 42 -19 74l91 9l-13 80z" />
    <glyph glyph-name="h" unicode="h" 
d="M459 0v347q0 65 -35 102.5t-103 37.5q-26 0 -49 -6.5t-43 -17t-37.5 -23.5t-32.5 -26v308l-89 -14v-708h89v330q32 35 67.5 56t70.5 21q39 0 56 -22.5t17 -59.5v-325h89z" />
    <glyph glyph-name="i" unicode="i" horiz-adv-x="243" 
d="M178 629q0 23 -16.5 40t-39.5 17t-40 -17t-17 -40t17 -39.5t40 -16.5t39.5 16.5t16.5 39.5zM166 0v477h-89v-477h89z" />
    <glyph glyph-name="j" unicode="j" horiz-adv-x="243" 
d="M178 629q0 23 -16.5 40t-39.5 17t-40 -17t-17 -40t17 -39.5t40 -16.5t39.5 16.5t16.5 39.5zM166 -60v537h-89v-529q0 -27 -13.5 -39.5t-36.5 -12.5q-11 0 -22.5 1t-19.5 3l13 -79q5 -2 17.5 -2.5t23.5 -0.5q57 0 92 28.5t35 93.5z" />
    <glyph glyph-name="k" unicode="k" horiz-adv-x="481" 
d="M468 8l-218 258l201 211h-107l-185 -200v445l-89 -14v-708h89v250l212 -257z" />
    <glyph glyph-name="l" unicode="l" horiz-adv-x="243" 
d="M166 0v722l-89 -14v-708h89z" />
    <glyph glyph-name="m" unicode="m" horiz-adv-x="815" 
d="M747 0v347q0 65 -33 102.5t-102 37.5q-51 0 -93.5 -24t-74.5 -55q-14 37 -43.5 58t-82.5 21q-51 0 -91.5 -24t-74.5 -55l-11 69h-71v-477h89v330q32 35 66 56t69 21q39 0 54.5 -22.5t15.5 -59.5v-325h89v330q32 35 66 56t69 21q39 0 54.5 -22.5t15.5 -59.5v-325h89z" />
    <glyph glyph-name="n" unicode="n" 
d="M459 0v347q0 65 -35 102.5t-103 37.5q-51 0 -93 -24t-76 -55l-11 69h-71v-477h89v330q32 35 67.5 56t70.5 21q39 0 56 -22.5t17 -59.5v-325h89z" />
    <glyph glyph-name="o" unicode="o" 
d="M484 238q0 59 -16.5 105t-46.5 78t-70.5 49t-88.5 17t-88 -17t-69 -49t-45.5 -78t-16.5 -105t16.5 -105t45.5 -78t69 -48.5t88 -16.5t88.5 16.5t70.5 48.5t46.5 78t16.5 105zM394 238q0 -38 -8.5 -69.5t-25 -55t-41 -36.5t-57.5 -13q-32 0 -56 13.5t-40 37t-24.5 55
t-8.5 68.5t8 69t24 55.5t40.5 36.5t56.5 13t57 -13.5t41.5 -37t25 -55t8.5 -68.5z" />
    <glyph glyph-name="p" unicode="p" horiz-adv-x="538" 
d="M495 252q0 60 -15 104t-40.5 73t-59.5 43.5t-73 14.5q-53 0 -90.5 -23.5t-64.5 -55.5l-11 69h-71v-663l89 13v188q23 -9 54 -15t66 -6q43 0 82.5 16t69 48t47 80.5t17.5 113.5zM405 248q0 -89 -36.5 -134t-93.5 -45q-38 0 -63.5 6t-52.5 20v229q29 38 61 61t73 23
q49 0 80.5 -41t31.5 -119z" />
    <glyph glyph-name="q" unicode="q" horiz-adv-x="533" 
d="M463 -173v626q-47 14 -89.5 22t-96.5 8q-52 0 -95 -16t-74 -48t-48 -80.5t-17 -113.5q0 -60 15 -104t40.5 -73.5t59.5 -43.5t73 -14q49 0 84 20.5t59 44.5v-241zM374 147q-27 -34 -59.5 -56t-70.5 -22q-48 0 -79.5 40.5t-31.5 119.5q0 92 37.5 135t107.5 43q33 0 53 -4.5
t43 -12.5v-243z" />
    <glyph glyph-name="r" unicode="r" horiz-adv-x="358" 
d="M337 402l-14 85q-59 -3 -100 -34.5t-67 -72.5l-15 97h-71v-477h89v282q12 24 30 45t41 37t50 26t57 12z" />
    <glyph glyph-name="s" unicode="s" horiz-adv-x="442" 
d="M403 133q0 34 -10 58.5t-31 42t-53.5 30.5t-76.5 24q-56 14 -77.5 29.5t-21.5 39.5q0 26 20.5 40.5t61.5 14.5q38 0 75.5 -11.5t69.5 -29.5l14 84q-34 15 -73 23.5t-84 8.5q-78 0 -123 -37.5t-45 -94.5q0 -32 9 -55t27.5 -40t48.5 -29.5t72 -22.5q32 -8 54 -15.5
t35 -16.5t18.5 -21t5.5 -28q0 -30 -25.5 -46.5t-71.5 -16.5q-49 0 -91.5 16t-76.5 39l-13 -84q31 -17 78.5 -31t95.5 -14q93 0 140.5 38.5t47.5 104.5z" />
    <glyph glyph-name="t" unicode="t" horiz-adv-x="337" 
d="M299 -2l-12 76q-17 -3 -41 -3q-38 0 -52 17t-14 46v268h115l-12 75h-103v172l-87 -13v-159h-72v-75h72v-284q0 -72 38 -99t101 -27q23 0 39.5 2t27.5 4z" />
    <glyph glyph-name="u" unicode="u" 
d="M457 0v477h-89v-330q-32 -35 -67.5 -56t-70.5 -21q-39 0 -56 22.5t-17 59.5v325h-89v-347q0 -65 34.5 -102.5t103.5 -37.5q51 0 93 23.5t76 55.5l11 -69h71z" />
    <glyph glyph-name="v" unicode="v" horiz-adv-x="473" 
d="M449 477h-91l-120 -370l-124 377l-89 -14l169 -472h85z" />
    <glyph glyph-name="w" unicode="w" horiz-adv-x="722" 
d="M694 477h-87l-102 -346l-106 346h-75l-106 -346l-105 353l-85 -14l154 -470h69l109 361l110 -361h70z" />
    <glyph glyph-name="x" unicode="x" horiz-adv-x="472" 
d="M443 6l-161 241l151 230h-93l-104 -163l-109 170l-88 -14l151 -226l-161 -244h94l112 178l120 -185z" />
    <glyph glyph-name="y" unicode="y" horiz-adv-x="483" 
d="M460 477h-91l-127 -373l-130 380l-88 -14l174 -472l-18 -49q-21 -56 -76 -56q-13 0 -26 2t-24 5l12 -78q7 -2 14.5 -3t16.5 -1q30 0 54.5 6.5t45.5 22t38.5 42.5t32.5 69z" />
    <glyph glyph-name="z" unicode="z" horiz-adv-x="452" 
d="M416 0l-12 74h-268l268 333v70h-357l12 -74h243l-267 -333v-70h381z" />
    <glyph glyph-name="braceleft" unicode="{" horiz-adv-x="477" 
d="M431 -104l-11 69h-99q-35 0 -49.5 16t-14.5 45q0 31 7 68.5t7 69.5q0 62 -28 90t-74 38v2q23 5 41.5 14t32 24t21 37t7.5 53q0 33 -7 70t-7 68q0 29 15.5 45.5t49.5 16.5h105v68h-112q-74 0 -108.5 -33.5t-34.5 -97.5q0 -35 6.5 -68.5t6.5 -69.5q0 -53 -27.5 -73.5
t-69.5 -20.5h-48l11 -67h36q42 0 70 -20.5t28 -74.5q0 -36 -6.5 -69.5t-6.5 -68.5q0 -63 34.5 -97t108.5 -34h116z" />
    <glyph glyph-name="bar" unicode="|" horiz-adv-x="266" 
d="M173 -173v895l-80 -13v-895z" />
    <glyph glyph-name="braceright" unicode="}" horiz-adv-x="477" 
d="M437 260l-11 67h-36q-43 0 -71 20.5t-28 73.5q0 36 7 70t7 68q0 64 -34.5 97.5t-108.5 33.5h-117l11 -68h98q35 0 50.5 -15.5t15.5 -44.5q0 -31 -7 -69t-7 -71q0 -31 7.5 -53t21 -37t32 -24t41.5 -14v-2q-46 -10 -74 -38t-28 -90q0 -32 7 -70.5t7 -68.5
q0 -29 -15.5 -44.5t-50.5 -15.5h-104v-69h112q74 0 108.5 34t34.5 97q0 35 -7 68.5t-7 69.5q0 54 27.5 74.5t70.5 20.5h48z" />
    <glyph glyph-name="asciitilde" unicode="~" horiz-adv-x="409" 
d="M359 337l-58 13q-7 -30 -14 -41t-18 -11q-12 0 -24.5 5t-41.5 20q-20 11 -35.5 17t-34.5 6q-70 0 -83 -114l58 -12q6 30 13.5 40.5t18.5 10.5t23.5 -5t41.5 -20q20 -11 36 -17t35 -6q69 0 83 114z" />
    <glyph glyph-name="nonbreakingspace" unicode="&#xa0;" horiz-adv-x="110" 
 />
    <glyph glyph-name="exclamdown" unicode="&#xa1;" horiz-adv-x="272" 
d="M186 571v119h-100v-119h100zM190 0l-25 485l-58 -13l-24 -472h107z" />
    <glyph glyph-name="cent" unicode="&#xa2;" horiz-adv-x="481" 
d="M265 94h5q49 0 88 11.5t75 38.5l-11 77q-37 -31 -69 -41t-73 -10h-4l51 331q25 -6 46.5 -18t43.5 -29l12 84q-17 12 -38.5 21.5t-49.5 15.5l15 96l-65 14l-17 -104h-3q-48 0 -89 -16t-71 -47t-47 -76.5t-17 -105.5q0 -94 41.5 -153.5t111.5 -79.5l-16 -98l65 -15z
M214 182q-38 15 -60 53t-22 103q0 83 36 125t96 44z" />
    <glyph glyph-name="sterling" unicode="&#xa3;" horiz-adv-x="536" 
d="M142 372h-97v-78h72l-72 -225v-69h448l-13 80h-342q1 2 7.5 22.5t17 53t20 63t16.5 53l7 22.5h211l-12 78h-174l6 18l13 39t12.5 39l5.5 18q21 66 51 93.5t79 27.5q25 0 43 -2.5t36 -7.5l12 82q-18 5 -39 7.5t-44 2.5q-87 0 -138 -42t-81 -136z" />
    <glyph glyph-name="currency" unicode="&#xa4;" horiz-adv-x="591" 
d="M113 388q-1 -13 -1.5 -25.5t-0.5 -25.5q0 -11 0.5 -22t1.5 -22h-91l11 -70h89q11 -53 33.5 -96.5t55.5 -74.5t75.5 -48t95.5 -17t99.5 17t82.5 43l-14 83q-38 -30 -78 -46.5t-87 -16.5q-66 0 -110 41.5t-63 114.5h235v70h-247q-1 11 -1.5 22t-0.5 23q0 13 0.5 25.5
t1.5 24.5h252l-11 70h-229q20 72 63 112t108 40q48 0 84 -15.5t71 -43.5l15 86q-34 25 -75 38.5t-95 13.5q-51 0 -93.5 -17t-75 -47.5t-55.5 -73t-35 -93.5h-98v-70h87z" />
    <glyph glyph-name="yen" unicode="&#xa5;" horiz-adv-x="607" 
d="M344 226h171l-11 69h-143l224 381h-98l-184 -333l-189 340l-89 -20l217 -368h-149v-69h166v-76h-171l12 -69h159v-81h85v81h166v69h-166v76z" />
    <glyph glyph-name="brokenbar" unicode="&#xa6;" horiz-adv-x="500" 
d="M25 -200h450v1000h-450v-1000z" />
    <glyph glyph-name="section" unicode="&#xa7;" horiz-adv-x="526" 
d="M481 359q0 48 -31 75t-104 44l-90 20q-40 9 -59 22t-19 37q0 23 19.5 39.5t57.5 16.5q42 0 80.5 -10.5t72.5 -29.5l13 80q-37 16 -76 23.5t-88 7.5q-36 0 -65.5 -10t-51 -27.5t-33.5 -41.5t-12 -52q0 -31 11 -52.5t31 -36t48.5 -24.5t63.5 -17l53 -11q30 -6 49 -12.5
t30.5 -15t15.5 -18.5t4 -24q0 -16 -6.5 -34t-15.5 -35l72 -13q11 19 20.5 43.5t9.5 55.5zM45 317q0 -48 31 -75t104 -44l90 -20q40 -9 59 -22t19 -37q0 -23 -19.5 -39.5t-57.5 -16.5q-42 0 -80.5 10.5t-72.5 29.5l-13 -80q37 -16 76 -23.5t88 -7.5q36 0 65.5 10t51 27.5
t33.5 41.5t12 52q0 31 -11 52.5t-31 36t-48.5 24t-63.5 17.5l-53 11q-30 6 -49 12.5t-30.5 15t-15.5 18.5t-4 24q0 16 6.5 34t15.5 35l-72 13q-11 -19 -20.5 -43.5t-9.5 -55.5z" />
    <glyph glyph-name="dieresis" unicode="&#xa8;" horiz-adv-x="454" 
d="M366 551v101h-99v-101h99zM187 551v101h-99v-101h99z" />
    <glyph glyph-name="copyright" unicode="&#xa9;" horiz-adv-x="799" 
d="M745 346q0 80 -25 145.5t-70.5 112.5t-109 73t-140.5 26t-140.5 -26t-109 -73.5t-71 -113.5t-25.5 -146t25 -145.5t70.5 -112.5t109 -73t140.5 -26q76 0 140 26t109.5 73.5t71 113.5t25.5 146zM701 345q0 -78 -23 -138t-63.5 -101t-95.5 -62t-119 -21t-119 21t-95.5 62
t-64 101t-23.5 138t23 138t63.5 101t95.5 62t120 21q63 0 118 -21t95.5 -62t64 -101t23.5 -138zM536 185l-10 65q-31 -22 -59 -33t-57 -11q-54 0 -86.5 38.5t-32.5 103.5t32.5 103.5t86.5 38.5q55 0 109 -41l10 68q-26 17 -55 26t-64 9q-41 0 -75.5 -15t-59 -42t-38 -64.5
t-13.5 -82.5q0 -46 13.5 -83.5t37.5 -64.5t58.5 -41.5t76.5 -14.5q34 0 66.5 11t59.5 30z" />
    <glyph glyph-name="ordfeminine" unicode="&#xaa;" horiz-adv-x="381" 
d="M314 357v221q0 54 -28.5 78.5t-87.5 24.5q-36 0 -65 -7t-59 -20l10 -58q28 13 54.5 20.5t53.5 7.5q26 0 41.5 -10.5t15.5 -38.5v-9q-97 -11 -146.5 -38.5t-49.5 -86.5q0 -42 25 -66t69 -24q36 0 62 13.5t45 30.5l6 -38h54zM323 223l-10 59h-257v-59h267zM249 448
q-20 -19 -42 -30.5t-47 -11.5q-20 0 -31.5 10.5t-11.5 28.5q0 11 5.5 22t20 20t40 16t66.5 11v-66z" />
    <glyph glyph-name="guillemotleft" unicode="&#xab;" 
d="M481 477h-83l-159 -238l161 -244l76 16l-141 228zM278 477h-84l-159 -238l162 -244l75 16l-140 228z" />
    <glyph glyph-name="logicalnot" unicode="&#xac;" horiz-adv-x="572" 
d="M518 299v78h-464v-78h464z" />
    <glyph glyph-name="registered" unicode="&#xae;" horiz-adv-x="563" 
d="M508 470q0 52 -16.5 95t-46.5 73.5t-72 47.5t-92 17t-91.5 -17t-71.5 -48t-47 -73.5t-17 -94.5t16.5 -95t46.5 -73.5t72 -47t92 -16.5q49 0 91 17t72 47.5t47 73t17 94.5zM476 470q0 -49 -15 -87t-41.5 -64.5t-62 -40t-76.5 -13.5t-76 13.5t-61.5 40t-41.5 64.5t-15 87
t15 87.5t41.5 65t61.5 40t76 13.5q40 0 76 -13.5t62 -40t41.5 -65t15.5 -87.5zM392 356l-74 105q24 8 38 25.5t14 45.5q0 36 -24.5 55.5t-65.5 19.5h-78v-257h44v106h25l77 -110zM325 529q0 -20 -12.5 -29t-34.5 -9h-32v76h34q45 0 45 -38z" />
    <glyph glyph-name="macron" unicode="&#xaf;" horiz-adv-x="454" 
d="M350 575v72h-246v-72h246z" />
    <glyph glyph-name="macron" unicode="&#x2c9;" horiz-adv-x="454" 
d="M350 575v72h-246v-72h246z" />
    <glyph glyph-name="degree" unicode="&#xb0;" horiz-adv-x="427" 
d="M380 514q0 36 -12.5 67t-34.5 53.5t-52.5 35t-67.5 12.5q-36 0 -67 -12.5t-53 -35t-34.5 -53.5t-12.5 -67t12.5 -66.5t34.5 -52.5t53 -34.5t67 -12.5q37 0 67.5 12.5t52.5 34.5t34.5 52.5t12.5 66.5zM312 514q0 -45 -28 -73.5t-71 -28.5q-42 0 -70.5 28.5t-28.5 73.5
q0 22 7.5 41t21 33t31.5 22t39 8q43 0 71 -29.5t28 -74.5z" />
    <glyph glyph-name="plusminus" unicode="&#xb1;" horiz-adv-x="589" 
d="M564 153v75h-108v191l-83 -18v-173h-238l301 434l-85 19l-316 -462v-66h338v-153h83v153h108z" />
    <glyph glyph-name="twosuperior" unicode="&#xb2;" horiz-adv-x="500" 
d="M25 -200h450v1000h-450v-1000z" />
    <glyph glyph-name="threesuperior" unicode="&#xb3;" horiz-adv-x="500" 
d="M25 -200h450v1000h-450v-1000z" />
    <glyph glyph-name="acute" unicode="&#xb4;" horiz-adv-x="454" 
d="M331 674l-108 24l-86 -151h60z" />
    <glyph glyph-name="mu" unicode="&#xb5;" horiz-adv-x="572" 
d="M448 122l54 54l-165 163l165 163l-52 52l-163 -165l-163 165l-54 -54l165 -163l-165 -163l52 -52l163 165z" />
    <glyph glyph-name="mu" unicode="&#x3bc;" horiz-adv-x="572" 
d="M448 122l54 54l-165 163l165 163l-52 52l-163 -165l-163 165l-54 -54l165 -163l-165 -163l52 -52l163 165z" />
    <glyph glyph-name="paragraph" unicode="&#xb6;" horiz-adv-x="536" 
d="M453 0v676h-181q-110 0 -173.5 -52.5t-63.5 -149.5q0 -51 16.5 -89t47.5 -64t74 -39.5t97 -15.5l33 199v144h70v-609h80z" />
    <glyph glyph-name="periodcentered" unicode="&#xb7;" horiz-adv-x="227" 
d="M163 224v119h-99v-119h99z" />
    <glyph glyph-name="cedilla" unicode="&#xb8;" horiz-adv-x="454" 
d="M306 -74l-107 25l-76 -133h60z" />
    <glyph glyph-name="onesuperior" unicode="&#xb9;" horiz-adv-x="500" 
d="M25 -200h450v1000h-450v-1000z" />
    <glyph glyph-name="ordmasculine" unicode="&#xba;" horiz-adv-x="385" 
d="M340 515q0 79 -41.5 122.5t-106.5 43.5q-32 0 -58.5 -11t-46.5 -32.5t-31 -52.5t-11 -70q0 -78 42 -121t105 -43q65 0 106.5 43t41.5 121zM332 223l-10 59h-266v-59h276zM271 515q0 -45 -19.5 -76t-59.5 -31q-39 0 -58.5 31t-19.5 76q0 46 19 77t59 31t59.5 -31.5
t19.5 -76.5z" />
    <glyph glyph-name="guillemotright" unicode="&#xbb;" 
d="M491 238l-161 244l-76 -16l141 -228l-146 -238h83zM288 238l-162 244l-75 -16l141 -228l-147 -238h84z" />
    <glyph glyph-name="onequarter" unicode="&#xbc;" horiz-adv-x="500" 
d="M25 -200h450v1000h-450v-1000z" />
    <glyph glyph-name="onehalf" unicode="&#xbd;" horiz-adv-x="500" 
d="M25 -200h450v1000h-450v-1000z" />
    <glyph glyph-name="threequarters" unicode="&#xbe;" horiz-adv-x="500" 
d="M25 -200h450v1000h-450v-1000z" />
    <glyph glyph-name="questiondown" unicode="&#xbf;" horiz-adv-x="518" 
d="M334 571v119h-100v-119h100zM474 61l-13 92q-42 -35 -89.5 -58t-106.5 -23q-51 0 -83.5 25t-32.5 71q0 48 32.5 77t103.5 58l41 17l-13 165l-58 -13l-9 -99q-45 -20 -80 -40t-60 -44t-38 -54.5t-13 -70.5q0 -41 15 -73.5t42 -55.5t64.5 -35.5t83.5 -12.5q62 0 115 20
t99 54z" />
    <glyph glyph-name="Agrave" unicode="&#xc0;" horiz-adv-x="688" 
d="M659 13l-266 680h-94l-270 -693h95l78 207h285l81 -214zM455 290h-221l110 291zM373 747l-86 151l-108 -24l134 -127h60z" />
    <glyph glyph-name="Aacute" unicode="&#xc1;" horiz-adv-x="688" 
d="M513 874l-108 24l-86 -151h60zM659 13l-266 680h-94l-270 -693h95l78 207h285l81 -214zM455 290h-221l110 291z" />
    <glyph glyph-name="Acircumflex" unicode="&#xc2;" horiz-adv-x="688" 
d="M659 13l-266 680h-94l-270 -693h95l78 207h285l81 -214zM455 290h-221l110 291zM480 745l-94 134h-84l-100 -141h56l85 71l88 -74z" />
    <glyph glyph-name="Atilde" unicode="&#xc3;" horiz-adv-x="688" 
d="M659 13l-266 680h-94l-270 -693h95l78 207h285l81 -214zM455 290h-221l110 291zM498 864l-58 12q-6 -29 -13.5 -40t-18.5 -11t-23.5 5t-41.5 20q-20 11 -35.5 17t-35.5 6q-69 0 -82 -114l58 -12q6 30 13.5 40.5t18.5 10.5t23.5 -5t41.5 -20q20 -11 35.5 -17t35.5 -6
q68 0 82 114z" />
    <glyph glyph-name="Adieresis" unicode="&#xc4;" horiz-adv-x="688" 
d="M659 13l-266 680h-94l-270 -693h95l78 207h285l81 -214zM455 290h-221l110 291zM483 751v101h-99v-101h99zM304 751v101h-99v-101h99z" />
    <glyph glyph-name="Aring" unicode="&#xc5;" horiz-adv-x="688" 
d="M659 13l-266 680h-94l-270 -693h95l78 207h285l81 -214zM455 290h-221l110 291zM448 847q0 22 -8 41t-21.5 33t-33 22t-41.5 8q-23 0 -42 -8t-32.5 -22t-21.5 -33t-8 -41q0 -45 29.5 -73.5t74.5 -28.5t74.5 28.5t29.5 73.5zM401 847q0 -26 -16 -42.5t-41 -16.5t-41 16.5
t-16 42.5t16 43t41 17t41 -17t16 -43z" />
    <glyph glyph-name="AE" unicode="&#xc6;" horiz-adv-x="881" 
d="M844 0v86h-290v232h231l-13 86h-218v200h280v86h-430l-401 -690h101l118 207h239v-207h383zM461 290h-190l190 330v-330z" />
    <glyph glyph-name="Ccedilla" unicode="&#xc7;" horiz-adv-x="646" 
d="M583 54l-14 89q-42 -30 -90 -49.5t-104 -19.5q-52 0 -93.5 19t-70 54t-44 85.5t-15.5 112.5t15 112.5t44 86t70 54.5t94 19q56 0 100.5 -19t82.5 -48l14 96q-40 27 -87 42t-109 15q-73 0 -132 -26t-101 -73.5t-65 -113.5t-23 -146t22.5 -145.5t64 -112.5t100.5 -73
t132 -26q60 0 114.5 19t94.5 48zM428 -83l-107 25l-76 -133h60z" />
    <glyph glyph-name="Egrave" unicode="&#xc8;" horiz-adv-x="502" 
d="M465 0v86h-288v232h230l-14 86h-216v200h278v86h-372v-690h382zM317 747l-86 151l-108 -24l134 -127h60z" />
    <glyph glyph-name="Eacute" unicode="&#xc9;" horiz-adv-x="502" 
d="M465 0v86h-288v232h230l-14 86h-216v200h278v86h-372v-690h382zM395 874l-108 24l-86 -151h60z" />
    <glyph glyph-name="Ecircumflex" unicode="&#xca;" horiz-adv-x="502" 
d="M465 0v86h-288v232h230l-14 86h-216v200h278v86h-372v-690h382zM398 754l-94 134h-84l-100 -141h56l85 71l88 -74z" />
    <glyph glyph-name="Edieresis" unicode="&#xcb;" horiz-adv-x="502" 
d="M465 0v86h-288v232h230l-14 86h-216v200h278v86h-372v-690h382zM401 751v101h-99v-101h99zM222 751v101h-99v-101h99z" />
    <glyph glyph-name="Igrave" unicode="&#xcc;" horiz-adv-x="272" 
d="M183 0v690h-94v-690h94zM167 747l-86 151l-108 -24l134 -127h60z" />
    <glyph glyph-name="Iacute" unicode="&#xcd;" horiz-adv-x="272" 
d="M299 874l-108 24l-86 -151h60zM183 0v690h-94v-690h94z" />
    <glyph glyph-name="Icircumflex" unicode="&#xce;" horiz-adv-x="272" 
d="M183 0v690h-94v-690h94zM272 745l-94 134h-84l-100 -141h56l85 71l88 -74z" />
    <glyph glyph-name="Idieresis" unicode="&#xcf;" horiz-adv-x="272" 
d="M183 0v690h-94v-690h94zM275 751v101h-99v-101h99zM96 751v101h-99v-101h99z" />
    <glyph glyph-name="Eth" unicode="&#xd0;" horiz-adv-x="725" 
d="M668 346q0 76 -23 139t-68 108.5t-113 71t-158 25.5h-200v-287h-88l14 -84h74v-319h195q89 0 157.5 25t115 71t70.5 109.5t24 140.5zM572 345q0 -132 -71 -196t-195 -64h-107v234h172v84h-172v202h110q59 0 107.5 -16.5t83 -49t53.5 -81t19 -113.5z" />
    <glyph glyph-name="Ntilde" unicode="&#xd1;" horiz-adv-x="703" 
d="M620 0v690h-87v-517l-366 517h-84v-690h87v537l379 -537h71zM507 846l-58 12q-6 -29 -13.5 -40t-18.5 -11t-23.5 5t-41.5 20q-20 11 -35.5 17t-35.5 6q-69 0 -82 -114l58 -12q6 30 13.5 40.5t18.5 10.5t23.5 -5t41.5 -20q20 -11 35.5 -17t35.5 -6q68 0 82 114z" />
    <glyph glyph-name="Ograve" unicode="&#xd2;" horiz-adv-x="746" 
d="M691 346q0 80 -22 145.5t-63.5 112.5t-100 73t-131.5 26t-132 -26t-100.5 -73.5t-64 -113.5t-22.5 -146t22 -145.5t63.5 -112.5t100 -73t131.5 -26t132 26t100.5 73.5t64 113.5t22.5 146zM594 345q0 -62 -15.5 -112.5t-44 -86t-69.5 -54.5t-92 -19t-92 19t-69.5 54.5
t-44 86t-15.5 112.5t15.5 112.5t44 86t69.5 54.5t92 19t92 -19t69.5 -54.5t44 -86t15.5 -112.5zM417 756l-86 151l-108 -24l134 -127h60z" />
    <glyph glyph-name="Oacute" unicode="&#xd3;" horiz-adv-x="746" 
d="M512 883l-108 24l-86 -151h60zM691 346q0 80 -22 145.5t-63.5 112.5t-100 73t-131.5 26t-132 -26t-100.5 -73.5t-64 -113.5t-22.5 -146t22 -145.5t63.5 -112.5t100 -73t131.5 -26t132 26t100.5 73.5t64 113.5t22.5 146zM594 345q0 -62 -15.5 -112.5t-44 -86t-69.5 -54.5
t-92 -19t-92 19t-69.5 54.5t-44 86t-15.5 112.5t15.5 112.5t44 86t69.5 54.5t92 19t92 -19t69.5 -54.5t44 -86t15.5 -112.5z" />
    <glyph glyph-name="Ocircumflex" unicode="&#xd4;" horiz-adv-x="746" 
d="M691 346q0 80 -22 145.5t-63.5 112.5t-100 73t-131.5 26t-132 -26t-100.5 -73.5t-64 -113.5t-22.5 -146t22 -145.5t63.5 -112.5t100 -73t131.5 -26t132 26t100.5 73.5t64 113.5t22.5 146zM594 345q0 -62 -15.5 -112.5t-44 -86t-69.5 -54.5t-92 -19t-92 19t-69.5 54.5
t-44 86t-15.5 112.5t15.5 112.5t44 86t69.5 54.5t92 19t92 -19t69.5 -54.5t44 -86t15.5 -112.5zM508 759l-94 134h-84l-100 -141h56l85 71l88 -74z" />
    <glyph glyph-name="Otilde" unicode="&#xd5;" horiz-adv-x="746" 
d="M691 346q0 80 -22 145.5t-63.5 112.5t-100 73t-131.5 26t-132 -26t-100.5 -73.5t-64 -113.5t-22.5 -146t22 -145.5t63.5 -112.5t100 -73t131.5 -26t132 26t100.5 73.5t64 113.5t22.5 146zM594 345q0 -62 -15.5 -112.5t-44 -86t-69.5 -54.5t-92 -19t-92 19t-69.5 54.5
t-44 86t-15.5 112.5t15.5 112.5t44 86t69.5 54.5t92 19t92 -19t69.5 -54.5t44 -86t15.5 -112.5zM526 878l-58 12q-6 -29 -13.5 -40t-18.5 -11t-23.5 5t-41.5 20q-20 11 -35.5 17t-35.5 6q-69 0 -82 -114l58 -12q6 30 13.5 40.5t18.5 10.5t23.5 -5t41.5 -20q20 -11 35.5 -17
t35.5 -6q68 0 82 114z" />
    <glyph glyph-name="Odieresis" unicode="&#xd6;" horiz-adv-x="746" 
d="M691 346q0 80 -22 145.5t-63.5 112.5t-100 73t-131.5 26t-132 -26t-100.5 -73.5t-64 -113.5t-22.5 -146t22 -145.5t63.5 -112.5t100 -73t131.5 -26t132 26t100.5 73.5t64 113.5t22.5 146zM594 345q0 -62 -15.5 -112.5t-44 -86t-69.5 -54.5t-92 -19t-92 19t-69.5 54.5
t-44 86t-15.5 112.5t15.5 112.5t44 86t69.5 54.5t92 19t92 -19t69.5 -54.5t44 -86t15.5 -112.5zM511 760v101h-99v-101h99zM332 760v101h-99v-101h99z" />
    <glyph glyph-name="multiply" unicode="&#xd7;" horiz-adv-x="500" 
d="M25 -200h450v1000h-450v-1000z" />
    <glyph glyph-name="Oslash" unicode="&#xd8;" horiz-adv-x="746" 
d="M695 681l-84 18l-46 -57q-38 29 -86 45t-105 16q-73 0 -132 -26t-100.5 -73.5t-64 -113.5t-22.5 -146q0 -74 19 -135t54 -107l-75 -93l82 -18l47 57q38 -29 85.5 -45t104.5 -16q73 0 132 26t100.5 73.5t64 113.5t22.5 146q0 74 -19 135t-54 106zM509 573l-320 -396
q-19 34 -29 76t-10 92q0 63 15.5 113.5t44.5 86t70 55t93 19.5q81 0 136 -46zM597 345q0 -63 -15.5 -113.5t-44.5 -86t-70.5 -55t-93.5 -19.5q-81 0 -135 46l321 396q18 -33 28 -75.5t10 -92.5z" />
    <glyph glyph-name="Ugrave" unicode="&#xd9;" horiz-adv-x="689" 
d="M613 266v424h-94v-420q0 -94 -44 -145.5t-132 -51.5q-89 0 -131 55t-42 145v417h-94v-429q0 -63 18 -113.5t52.5 -86.5t84 -55t112.5 -19t113 19t85 55t53.5 88t18.5 117zM395 725l-86 151l-108 -24l134 -127h60z" />
    <glyph glyph-name="Uacute" unicode="&#xda;" horiz-adv-x="689" 
d="M488 852l-108 24l-86 -151h60zM613 266v424h-94v-420q0 -94 -44 -145.5t-132 -51.5q-89 0 -131 55t-42 145v417h-94v-429q0 -63 18 -113.5t52.5 -86.5t84 -55t112.5 -19t113 19t85 55t53.5 88t18.5 117z" />
    <glyph glyph-name="Ucircumflex" unicode="&#xdb;" horiz-adv-x="689" 
d="M613 266v424h-94v-420q0 -94 -44 -145.5t-132 -51.5q-89 0 -131 55t-42 145v417h-94v-429q0 -63 18 -113.5t52.5 -86.5t84 -55t112.5 -19t113 19t85 55t53.5 88t18.5 117zM481 736l-94 134h-84l-100 -141h56l85 71l88 -74z" />
    <glyph glyph-name="Udieresis" unicode="&#xdc;" horiz-adv-x="689" 
d="M613 266v424h-94v-420q0 -94 -44 -145.5t-132 -51.5q-89 0 -131 55t-42 145v417h-94v-429q0 -63 18 -113.5t52.5 -86.5t84 -55t112.5 -19t113 19t85 55t53.5 88t18.5 117zM484 733v101h-99v-101h99zM305 733v101h-99v-101h99z" />
    <glyph glyph-name="Yacute" unicode="&#xdd;" horiz-adv-x="636" 
d="M614 690h-104l-193 -330l-198 337l-94 -20l244 -403v-274h94v274zM467 847l-108 24l-86 -151h60z" />
    <glyph glyph-name="Thorn" unicode="&#xde;" horiz-adv-x="536" 
d="M500 359q0 97 -62 148t-172 51h-89v132h-94v-690h94v148h73q56 0 102 13t79 39.5t51 66t18 92.5zM405 356q0 -65 -39.5 -95t-110.5 -30h-78v244h84q71 0 107.5 -29.5t36.5 -89.5z" />
    <glyph glyph-name="germandbls" unicode="&#xdf;" horiz-adv-x="612" 
d="M577 143q0 79 -54.5 125.5t-174.5 75.5q39 48 66.5 97t27.5 108q0 81 -46 122.5t-127 41.5q-78 0 -125.5 -47t-47.5 -138v-51h-71v-75h71v-402h89v538q0 45 22 72t64 27q38 0 60 -23.5t22 -68.5q0 -48 -22.5 -95t-59.5 -95l10 -70q73 -17 115.5 -35t64 -36.5t27 -38.5
t5.5 -39q0 -34 -23 -53t-60 -19q-35 0 -72.5 13.5t-70.5 36.5l-14 -83q31 -19 71 -30t80 -11q78 0 125.5 38.5t47.5 114.5z" />
    <glyph glyph-name="agrave" unicode="&#xe0;" horiz-adv-x="499" 
d="M431 0v334q0 80 -42 116.5t-130 36.5q-56 0 -99 -11.5t-86 -28.5l12 -77q39 17 80 29t85 12q42 0 66.5 -18t24.5 -63v-20q-75 -8 -131 -21.5t-94 -35.5t-57 -53.5t-19 -76.5q0 -61 37.5 -97t102.5 -36q59 0 99 22.5t69 51.5l10 -64h72zM342 131q-30 -31 -66.5 -49
t-75.5 -18q-34 0 -52.5 17.5t-18.5 46.5q0 18 8.5 36t32 33t65 27t107.5 18v-111zM286 547l-86 151l-108 -24l134 -127h60z" />
    <glyph glyph-name="aacute" unicode="&#xe1;" horiz-adv-x="499" 
d="M431 0v334q0 80 -42 116.5t-130 36.5q-56 0 -99 -11.5t-86 -28.5l12 -77q39 17 80 29t85 12q42 0 66.5 -18t24.5 -63v-20q-75 -8 -131 -21.5t-94 -35.5t-57 -53.5t-19 -76.5q0 -61 37.5 -97t102.5 -36q59 0 99 22.5t69 51.5l10 -64h72zM342 131q-30 -31 -66.5 -49
t-75.5 -18q-34 0 -52.5 17.5t-18.5 46.5q0 18 8.5 36t32 33t65 27t107.5 18v-111zM395 674l-108 24l-86 -151h60z" />
    <glyph glyph-name="acircumflex" unicode="&#xe2;" horiz-adv-x="499" 
d="M431 0v334q0 80 -42 116.5t-130 36.5q-56 0 -99 -11.5t-86 -28.5l12 -77q39 17 80 29t85 12q42 0 66.5 -18t24.5 -63v-20q-75 -8 -131 -21.5t-94 -35.5t-57 -53.5t-19 -76.5q0 -61 37.5 -97t102.5 -36q59 0 99 22.5t69 51.5l10 -64h72zM342 131q-30 -31 -66.5 -49
t-75.5 -18q-34 0 -52.5 17.5t-18.5 46.5q0 18 8.5 36t32 33t65 27t107.5 18v-111zM380 554l-94 134h-84l-100 -141h56l85 71l88 -74z" />
    <glyph glyph-name="atilde" unicode="&#xe3;" horiz-adv-x="499" 
d="M431 0v334q0 80 -42 116.5t-130 36.5q-56 0 -99 -11.5t-86 -28.5l12 -77q39 17 80 29t85 12q42 0 66.5 -18t24.5 -63v-20q-75 -8 -131 -21.5t-94 -35.5t-57 -53.5t-19 -76.5q0 -61 37.5 -97t102.5 -36q59 0 99 22.5t69 51.5l10 -64h72zM342 131q-30 -31 -66.5 -49
t-75.5 -18q-34 0 -52.5 17.5t-18.5 46.5q0 18 8.5 36t32 33t65 27t107.5 18v-111zM403 664l-58 12q-6 -29 -13.5 -40t-18.5 -11t-23.5 5t-41.5 20q-20 11 -35.5 17t-35.5 6q-69 0 -82 -114l58 -12q6 30 13.5 40.5t18.5 10.5t23.5 -5t41.5 -20q20 -11 35.5 -17t35.5 -6
q68 0 82 114z" />
    <glyph glyph-name="adieresis" unicode="&#xe4;" horiz-adv-x="499" 
d="M431 0v334q0 80 -42 116.5t-130 36.5q-56 0 -99 -11.5t-86 -28.5l12 -77q39 17 80 29t85 12q42 0 66.5 -18t24.5 -63v-20q-75 -8 -131 -21.5t-94 -35.5t-57 -53.5t-19 -76.5q0 -61 37.5 -97t102.5 -36q59 0 99 22.5t69 51.5l10 -64h72zM342 131q-30 -31 -66.5 -49
t-75.5 -18q-34 0 -52.5 17.5t-18.5 46.5q0 18 8.5 36t32 33t65 27t107.5 18v-111zM389 551v101h-99v-101h99zM210 551v101h-99v-101h99z" />
    <glyph glyph-name="aring" unicode="&#xe5;" horiz-adv-x="499" 
d="M431 0v334q0 80 -42 116.5t-130 36.5q-56 0 -99 -11.5t-86 -28.5l12 -77q39 17 80 29t85 12q42 0 66.5 -18t24.5 -63v-20q-75 -8 -131 -21.5t-94 -35.5t-57 -53.5t-19 -76.5q0 -61 37.5 -97t102.5 -36q59 0 99 22.5t69 51.5l10 -64h72zM342 131q-30 -31 -66.5 -49
t-75.5 -18q-34 0 -52.5 17.5t-18.5 46.5q0 18 8.5 36t32 33t65 27t107.5 18v-111zM348 647q0 22 -8 41t-21.5 33t-33 22t-41.5 8q-23 0 -42 -8t-32.5 -22t-21.5 -33t-8 -41q0 -45 29.5 -73.5t74.5 -28.5t74.5 28.5t29.5 73.5zM301 647q0 -26 -16 -42.5t-41 -16.5t-41 16.5
t-16 42.5t16 43t41 17t41 -17t16 -43z" />
    <glyph glyph-name="ae" unicode="&#xe6;" horiz-adv-x="790" 
d="M746 248q0 49 -12 93t-37 76t-63 51t-90 19q-46 0 -82 -17.5t-62 -49.5q-20 37 -53 52t-95 15q-51 0 -93 -11.5t-85 -28.5l12 -77q39 17 80 29t85 12q42 0 62 -18t20 -63v-21q-149 -16 -220.5 -59t-71.5 -127q0 -66 43.5 -99.5t112.5 -33.5q60 0 105.5 22.5t79.5 53.5
q31 -39 75.5 -57.5t97.5 -18.5q60 0 106 17t84 47l-12 80q-39 -31 -79.5 -49.5t-92.5 -18.5q-62 0 -99 39.5t-40 123.5h324v19zM656 296h-229q10 62 42 91.5t74 29.5q51 0 78 -31.5t35 -89.5zM350 127q-67 -63 -141 -63q-37 0 -58.5 16.5t-21.5 47.5q0 18 8 35.5t30.5 32.5
t62.5 26.5t103 18.5v-1q0 -32 4.5 -60.5t12.5 -52.5z" />
    <glyph glyph-name="ccedilla" unicode="&#xe7;" horiz-adv-x="469" 
d="M428 41l-13 80q-37 -32 -70 -42.5t-69 -10.5q-63 0 -103 42t-40 129q0 84 37 127t96 43q42 0 76.5 -13t67.5 -40l13 87q-27 20 -65 32t-91 12q-47 0 -87.5 -16t-71 -47.5t-48 -78t-17.5 -107.5q0 -60 16.5 -106t46.5 -77.5t70.5 -48t88.5 -16.5t87 11.5t76 39.5zM333 -83
l-107 25l-76 -133h60z" />
    <glyph glyph-name="egrave" unicode="&#xe8;" horiz-adv-x="499" 
d="M456 248q0 49 -12 93t-37 76t-63.5 51t-90.5 19q-45 0 -83.5 -17t-66.5 -49t-44 -78t-16 -103q0 -66 17 -113t47 -77.5t70 -45t87 -14.5q60 0 106.5 17t84.5 47l-13 80q-39 -31 -79 -49.5t-92 -18.5q-63 0 -100 39.5t-39 123.5h324v19zM366 296h-230q11 62 42.5 91.5
t73.5 29.5q52 0 79 -31.5t35 -89.5zM288 547l-86 151l-108 -24l134 -127h60z" />
    <glyph glyph-name="eacute" unicode="&#xe9;" horiz-adv-x="499" 
d="M456 248q0 49 -12 93t-37 76t-63.5 51t-90.5 19q-45 0 -83.5 -17t-66.5 -49t-44 -78t-16 -103q0 -66 17 -113t47 -77.5t70 -45t87 -14.5q60 0 106.5 17t84.5 47l-13 80q-39 -31 -79 -49.5t-92 -18.5q-63 0 -100 39.5t-39 123.5h324v19zM366 296h-230q11 62 42.5 91.5
t73.5 29.5q52 0 79 -31.5t35 -89.5zM402 674l-108 24l-86 -151h60z" />
    <glyph glyph-name="ecircumflex" unicode="&#xea;" horiz-adv-x="499" 
d="M456 248q0 49 -12 93t-37 76t-63.5 51t-90.5 19q-45 0 -83.5 -17t-66.5 -49t-44 -78t-16 -103q0 -66 17 -113t47 -77.5t70 -45t87 -14.5q60 0 106.5 17t84.5 47l-13 80q-39 -31 -79 -49.5t-92 -18.5q-63 0 -100 39.5t-39 123.5h324v19zM366 296h-230q11 62 42.5 91.5
t73.5 29.5q52 0 79 -31.5t35 -89.5zM388 554l-94 134h-84l-100 -141h56l85 71l88 -74z" />
    <glyph glyph-name="edieresis" unicode="&#xeb;" horiz-adv-x="499" 
d="M456 248q0 49 -12 93t-37 76t-63.5 51t-90.5 19q-45 0 -83.5 -17t-66.5 -49t-44 -78t-16 -103q0 -66 17 -113t47 -77.5t70 -45t87 -14.5q60 0 106.5 17t84.5 47l-13 80q-39 -31 -79 -49.5t-92 -18.5q-63 0 -100 39.5t-39 123.5h324v19zM366 296h-230q11 62 42.5 91.5
t73.5 29.5q52 0 79 -31.5t35 -89.5zM391 551v101h-99v-101h99zM212 551v101h-99v-101h99z" />
    <glyph glyph-name="igrave" unicode="&#xec;" horiz-adv-x="243" 
d="M156 547l-73 151l-92 -24l114 -127h51zM170 0v477h-89v-477h89z" />
    <glyph glyph-name="iacute" unicode="&#xed;" horiz-adv-x="243" 
d="M260 674l-92 24l-73 -151h51zM170 0v477h-89v-477h89z" />
    <glyph glyph-name="icircumflex" unicode="&#xee;" horiz-adv-x="243" 
d="M247 554l-85 134h-76l-90 -141h51l76 71l79 -74zM170 0v477h-89v-477h89z" />
    <glyph glyph-name="idieresis" unicode="&#xef;" horiz-adv-x="243" 
d="M246 551v101h-89v-101h89zM87 551v101h-89v-101h89zM170 0v477h-89v-477h89z" />
    <glyph glyph-name="eth" unicode="&#xf0;" horiz-adv-x="539" 
d="M492 298q0 111 -35 191t-98 135l58 84l-77 14l-39 -58q-61 36 -146 58l-12 -74q32 -9 60.5 -21t54.5 -28l-60 -92h80l34 50q29 -29 50 -66.5t32 -86.5q-29 20 -64.5 32.5t-78.5 12.5q-45 0 -83 -18t-65.5 -50t-43.5 -75.5t-16 -93.5q0 -51 16 -92.5t44.5 -70t68.5 -44
t87 -15.5q46 0 82.5 14t67.5 46q38 38 60.5 100t22.5 148zM405 317q1 -7 1 -14v-15q0 -51 -10 -92t-28.5 -70.5t-44.5 -45.5t-57 -16q-63 0 -98 42t-35 112t35.5 113.5t95.5 43.5q39 0 75.5 -16t65.5 -42z" />
    <glyph glyph-name="ntilde" unicode="&#xf1;" 
d="M459 0v347q0 65 -35 102.5t-103 37.5q-51 0 -93 -24t-76 -55l-11 69h-71v-477h89v330q32 35 67.5 56t70.5 21q39 0 56 -22.5t17 -59.5v-325h89zM421 664l-58 12q-6 -29 -13.5 -40t-18.5 -11t-23.5 5t-41.5 20q-20 11 -35.5 17t-35.5 6q-69 0 -82 -114l58 -12
q6 30 13.5 40.5t18.5 10.5t23.5 -5t41.5 -20q20 -11 35.5 -17t35.5 -6q68 0 82 114z" />
    <glyph glyph-name="ograve" unicode="&#xf2;" 
d="M484 238q0 59 -16.5 105t-46.5 78t-70.5 49t-88.5 17t-88 -17t-69 -49t-45.5 -78t-16.5 -105t16.5 -105t45.5 -78t69 -48.5t88 -16.5t88.5 16.5t70.5 48.5t46.5 78t16.5 105zM394 238q0 -38 -8.5 -69.5t-25 -55t-41 -36.5t-57.5 -13q-32 0 -56 13.5t-40 37t-24.5 55
t-8.5 68.5t8 69t24 55.5t40.5 36.5t56.5 13t57 -13.5t41.5 -37t25 -55t8.5 -68.5zM296 547l-86 151l-108 -24l134 -127h60z" />
    <glyph glyph-name="oacute" unicode="&#xf3;" 
d="M421 674l-108 24l-86 -151h60zM484 238q0 59 -16.5 105t-46.5 78t-70.5 49t-88.5 17t-88 -17t-69 -49t-45.5 -78t-16.5 -105t16.5 -105t45.5 -78t69 -48.5t88 -16.5t88.5 16.5t70.5 48.5t46.5 78t16.5 105zM394 238q0 -38 -8.5 -69.5t-25 -55t-41 -36.5t-57.5 -13
q-32 0 -56 13.5t-40 37t-24.5 55t-8.5 68.5t8 69t24 55.5t40.5 36.5t56.5 13t57 -13.5t41.5 -37t25 -55t8.5 -68.5z" />
    <glyph glyph-name="ocircumflex" unicode="&#xf4;" 
d="M484 238q0 59 -16.5 105t-46.5 78t-70.5 49t-88.5 17t-88 -17t-69 -49t-45.5 -78t-16.5 -105t16.5 -105t45.5 -78t69 -48.5t88 -16.5t88.5 16.5t70.5 48.5t46.5 78t16.5 105zM394 238q0 -38 -8.5 -69.5t-25 -55t-41 -36.5t-57.5 -13q-32 0 -56 13.5t-40 37t-24.5 55
t-8.5 68.5t8 69t24 55.5t40.5 36.5t56.5 13t57 -13.5t41.5 -37t25 -55t8.5 -68.5zM398 554l-94 134h-84l-100 -141h56l85 71l88 -74z" />
    <glyph glyph-name="otilde" unicode="&#xf5;" 
d="M484 238q0 59 -16.5 105t-46.5 78t-70.5 49t-88.5 17t-88 -17t-69 -49t-45.5 -78t-16.5 -105t16.5 -105t45.5 -78t69 -48.5t88 -16.5t88.5 16.5t70.5 48.5t46.5 78t16.5 105zM394 238q0 -38 -8.5 -69.5t-25 -55t-41 -36.5t-57.5 -13q-32 0 -56 13.5t-40 37t-24.5 55
t-8.5 68.5t8 69t24 55.5t40.5 36.5t56.5 13t57 -13.5t41.5 -37t25 -55t8.5 -68.5zM415 664l-58 12q-6 -29 -13.5 -40t-18.5 -11t-23.5 5t-41.5 20q-20 11 -35.5 17t-35.5 6q-69 0 -82 -114l58 -12q6 30 13.5 40.5t18.5 10.5t23.5 -5t41.5 -20q20 -11 35.5 -17t35.5 -6
q68 0 82 114z" />
    <glyph glyph-name="odieresis" unicode="&#xf6;" 
d="M484 238q0 59 -16.5 105t-46.5 78t-70.5 49t-88.5 17t-88 -17t-69 -49t-45.5 -78t-16.5 -105t16.5 -105t45.5 -78t69 -48.5t88 -16.5t88.5 16.5t70.5 48.5t46.5 78t16.5 105zM394 238q0 -38 -8.5 -69.5t-25 -55t-41 -36.5t-57.5 -13q-32 0 -56 13.5t-40 37t-24.5 55
t-8.5 68.5t8 69t24 55.5t40.5 36.5t56.5 13t57 -13.5t41.5 -37t25 -55t8.5 -68.5zM400 551v101h-99v-101h99zM221 551v101h-99v-101h99z" />
    <glyph glyph-name="divide" unicode="&#xf7;" horiz-adv-x="572" 
d="M335 467v107h-98v-107h98zM518 301v74h-464v-74h464zM335 102v107h-98v-107h98z" />
    <glyph glyph-name="oslash" unicode="&#xf8;" 
d="M489 469l-74 16l-27 -35q-56 37 -126 37q-48 0 -88 -17t-69 -49t-45.5 -78t-16.5 -105q0 -51 12 -92.5t35 -71.5l-52 -66l74 -16l27 34q53 -36 123 -36q48 0 88.5 16.5t70.5 48.5t46.5 78t16.5 105q0 51 -12 92t-35 72zM339 389l-193 -244q-16 39 -16 93q0 38 8 70.5
t24.5 56t41.5 37t58 13.5q46 0 77 -26zM380 331q17 -42 17 -93q0 -38 -8.5 -70.5t-25.5 -56t-42.5 -36.5t-58.5 -13q-44 0 -75 25z" />
    <glyph glyph-name="ugrave" unicode="&#xf9;" 
d="M457 0v477h-89v-330q-32 -35 -67.5 -56t-70.5 -21q-39 0 -56 22.5t-17 59.5v325h-89v-347q0 -65 34.5 -102.5t103.5 -37.5q51 0 93 23.5t76 55.5l11 -69h71zM290 547l-86 151l-108 -24l134 -127h60z" />
    <glyph glyph-name="uacute" unicode="&#xfa;" 
d="M457 0v477h-89v-330q-32 -35 -67.5 -56t-70.5 -21q-39 0 -56 22.5t-17 59.5v325h-89v-347q0 -65 34.5 -102.5t103.5 -37.5q51 0 93 23.5t76 55.5l11 -69h71zM405 674l-108 24l-86 -151h60z" />
    <glyph glyph-name="ucircumflex" unicode="&#xfb;" 
d="M457 0v477h-89v-330q-32 -35 -67.5 -56t-70.5 -21q-39 0 -56 22.5t-17 59.5v325h-89v-347q0 -65 34.5 -102.5t103.5 -37.5q51 0 93 23.5t76 55.5l11 -69h71zM399 554l-94 134h-84l-100 -141h56l85 71l88 -74z" />
    <glyph glyph-name="udieresis" unicode="&#xfc;" 
d="M457 0v477h-89v-330q-32 -35 -67.5 -56t-70.5 -21q-39 0 -56 22.5t-17 59.5v325h-89v-347q0 -65 34.5 -102.5t103.5 -37.5q51 0 93 23.5t76 55.5l11 -69h71zM404 551v101h-99v-101h99zM225 551v101h-99v-101h99z" />
    <glyph glyph-name="yacute" unicode="&#xfd;" horiz-adv-x="483" 
d="M460 477h-91l-127 -373l-130 380l-88 -14l174 -472l-18 -49q-21 -56 -76 -56q-13 0 -26 2t-24 5l12 -78q7 -2 14.5 -3t16.5 -1q30 0 54.5 6.5t45.5 22t38.5 42.5t32.5 69zM399 665l-108 24l-86 -151h60z" />
    <glyph glyph-name="thorn" unicode="&#xfe;" horiz-adv-x="538" 
d="M495 252q0 60 -15 104t-40.5 73t-59.5 43.5t-73 14.5q-51 0 -86.5 -22t-61.5 -49v306l-89 -14v-894l89 13v188q23 -9 54 -15t66 -6q43 0 82.5 16t69 48t47 80.5t17.5 113.5zM405 248q0 -89 -36.5 -134t-96.5 -45q-35 0 -60.5 6t-52.5 20v229q29 38 61 61t73 23
q49 0 80.5 -41t31.5 -119z" />
    <glyph glyph-name="ydieresis" unicode="&#xff;" horiz-adv-x="483" 
d="M460 477h-91l-127 -373l-130 380l-88 -14l174 -472l-18 -49q-21 -56 -76 -56q-13 0 -26 2t-24 5l12 -78q7 -2 14.5 -3t16.5 -1q30 0 54.5 6.5t45.5 22t38.5 42.5t32.5 69zM380 551v101h-99v-101h99zM201 551v101h-99v-101h99z" />
    <glyph glyph-name="dotlessi" unicode="&#x131;" horiz-adv-x="243" 
d="M170 0v477h-89v-477h89z" />
    <glyph glyph-name="Lslash" unicode="&#x141;" horiz-adv-x="490" 
d="M462 0l-13 86h-250v245l159 35v84l-159 -34v274h-93v-294l-88 -19l14 -82l74 16v-311h356z" />
    <glyph glyph-name="lslash" unicode="&#x142;" horiz-adv-x="289" 
d="M272 365v80l-84 -18v295l-87 -14v-299l-89 -19l13 -78l76 17v-329h87v347z" />
    <glyph glyph-name="OE" unicode="&#x152;" horiz-adv-x="873" 
d="M835 0v86h-287v232h229l-13 86h-216v200h277v86h-401q-89 0 -157.5 -25t-115 -71t-70.5 -109.5t-24 -140.5q0 -75 23 -138.5t68.5 -109t113 -71t157.5 -25.5h416zM455 85h-38q-59 0 -108 16.5t-83.5 49t-53.5 81t-19 113.5q0 132 71 196t195 64h36v-520z" />
    <glyph glyph-name="oe" unicode="&#x153;" horiz-adv-x="851" 
d="M807 248q0 49 -12 93t-37 76t-63 51t-90 19q-60 0 -100 -26t-66 -71q-24 45 -67 71t-110 26q-48 0 -88 -17t-69 -49t-45.5 -78t-16.5 -105t16.5 -105t45.5 -78t69 -48.5t88 -16.5q66 0 108 26t68 70q25 -45 67.5 -70.5t110.5 -25.5q60 0 106 17t84 47l-12 80
q-39 -31 -79.5 -49.5t-92.5 -18.5q-63 0 -99.5 39.5t-39.5 123.5h324v19zM717 296h-229q10 62 42 91.5t74 29.5q51 0 78 -31.5t35 -89.5zM394 238q0 -38 -8.5 -69.5t-25 -55t-41 -36.5t-57.5 -13q-32 0 -56 13.5t-40 37t-24.5 55t-8.5 68.5t8 69t24 55.5t40.5 36.5t56.5 13
t57 -13.5t41.5 -37t25 -55t8.5 -68.5z" />
    <glyph glyph-name="Scaron" unicode="&#x160;" horiz-adv-x="512" 
d="M464 186q0 39 -9.5 68.5t-30.5 53.5t-55.5 45t-84.5 44q-39 18 -64.5 32.5t-40.5 28.5t-20.5 29.5t-5.5 35.5q0 38 27 65.5t87 27.5q42 0 79 -14.5t66 -36.5l15 94q-30 17 -68 28t-89 11q-47 0 -85.5 -13t-66.5 -36.5t-43 -57t-15 -75.5q0 -37 9.5 -65t31 -50.5t55.5 -43
t83 -42.5q39 -18 64.5 -32.5t40.5 -29.5t21 -32.5t6 -41.5q0 -51 -34.5 -78t-88.5 -27q-52 0 -99 18t-82 41l-14 -96q38 -20 87 -32.5t106 -12.5q48 0 88.5 13.5t69 39t44.5 61t16 80.5zM400 897h-56l-85 -71l-88 74l-49 -10l94 -134h84z" />
    <glyph glyph-name="scaron" unicode="&#x161;" horiz-adv-x="442" 
d="M403 133q0 34 -10 58.5t-31 42t-53.5 30.5t-76.5 24q-56 14 -77.5 29.5t-21.5 39.5q0 26 20.5 40.5t61.5 14.5q38 0 75.5 -11.5t69.5 -29.5l14 84q-34 15 -73 23.5t-84 8.5q-78 0 -123 -37.5t-45 -94.5q0 -32 9 -55t27.5 -40t48.5 -29.5t72 -22.5q32 -8 54 -15.5
t35 -16.5t18.5 -21t5.5 -28q0 -30 -25.5 -46.5t-71.5 -16.5q-49 0 -91.5 16t-76.5 39l-13 -84q31 -17 78.5 -31t95.5 -14q93 0 140.5 38.5t47.5 104.5zM362 688h-56l-85 -71l-88 74l-49 -10l94 -134h84z" />
    <glyph glyph-name="Ydieresis" unicode="&#x178;" horiz-adv-x="636" 
d="M614 690h-104l-193 -330l-198 337l-94 -20l244 -403v-274h94v274zM455 733v101h-99v-101h99zM276 733v101h-99v-101h99z" />
    <glyph glyph-name="Zcaron" unicode="&#x17d;" horiz-adv-x="605" 
d="M563 0l-13 82h-389l393 538v70h-489l13 -82h363l-393 -538v-70h515zM449 888h-56l-85 -71l-88 74l-49 -10l94 -134h84z" />
    <glyph glyph-name="zcaron" unicode="&#x17e;" horiz-adv-x="452" 
d="M416 0l-12 74h-268l268 333v70h-357l12 -74h243l-267 -333v-70h381zM366 688h-56l-85 -71l-88 74l-49 -10l94 -134h84z" />
    <glyph glyph-name="florin" unicode="&#x192;" horiz-adv-x="382" 
d="M132 453h-69l-12 -75h69l-60 -378h89l60 378h105v75h-93l12 75q7 42 24.5 59.5t51.5 17.5q11 0 24 -1t21 -2v80q-8 1 -19 1.5t-26 0.5q-75 0 -113 -33t-50 -108z" />
    <glyph glyph-name="circumflex" unicode="&#x2c6;" horiz-adv-x="454" 
d="M363 554l-94 134h-84l-100 -141h56l85 71l88 -74z" />
    <glyph glyph-name="caron" unicode="&#x2c7;" horiz-adv-x="454" 
d="M369 688h-56l-85 -71l-88 74l-49 -10l94 -134h84z" />
    <glyph glyph-name="breve" unicode="&#x2d8;" horiz-adv-x="454" 
d="M358 693h-62q-4 -36 -21.5 -53.5t-46.5 -17.5q-66 0 -70 76l-61 -13q5 -66 40 -101.5t89 -35.5q61 0 94.5 38t37.5 107z" />
    <glyph glyph-name="dotaccent" unicode="&#x2d9;" horiz-adv-x="454" 
d="M277 551v101h-100v-101h100z" />
    <glyph glyph-name="ring" unicode="&#x2da;" horiz-adv-x="454" 
d="M331 647q0 22 -8 41t-21.5 33t-33 22t-41.5 8q-23 0 -42 -8t-32.5 -22t-21.5 -33t-8 -41q0 -45 29.5 -73.5t74.5 -28.5t74.5 28.5t29.5 73.5zM284 647q0 -26 -16 -42.5t-41 -16.5t-41 16.5t-16 42.5t16 43t41 17t41 -17t16 -43z" />
    <glyph glyph-name="ogonek" unicode="&#x2db;" horiz-adv-x="454" 
d="M331 -182l-76 133l-107 -25l123 -108h60z" />
    <glyph glyph-name="tilde" unicode="&#x2dc;" horiz-adv-x="454" 
d="M381 664l-58 12q-6 -29 -13.5 -40t-18.5 -11t-23.5 5t-41.5 20q-20 11 -35.5 17t-35.5 6q-69 0 -82 -114l58 -12q6 30 13.5 40.5t18.5 10.5t23.5 -5t41.5 -20q20 -11 35.5 -17t35.5 -6q68 0 82 114z" />
    <glyph glyph-name="hungarumlaut" unicode="&#x2dd;" horiz-adv-x="454" 
d="M394 676l-98 22l-84 -147h53zM237 676l-98 22l-84 -147h53z" />
    <glyph glyph-name="Delta" unicode="&#x394;" horiz-adv-x="500" 
d="M25 -200h450v1000h-450v-1000z" />
    <glyph glyph-name="Omega" unicode="&#x3a9;" horiz-adv-x="621" 
d="M607 630l-13 81q-7 0 -15.5 1t-22.5 1q-32 0 -59.5 -7t-47 -23t-30.5 -40.5t-11 -60.5v-105h-72v-75h72v-402h87v402h107l-12 75h-95v96q0 33 17 47t48 14q14 0 26.5 -1t20.5 -3zM296 630l-13 81q-7 0 -15.5 1t-22.5 1q-32 0 -59 -7t-47 -23t-31 -40.5t-11 -60.5v-105
h-72v-75h72v-402h87v402h107l-11 75h-96v96q0 33 17.5 47t48.5 14q14 0 26 -1t20 -3z" />
    <glyph glyph-name="pi" unicode="&#x3c0;" horiz-adv-x="799" 
d="M745 346q0 80 -25 145.5t-70.5 112.5t-109 73t-140.5 26t-140.5 -26t-109 -73.5t-71 -113.5t-25.5 -146t25 -145.5t70.5 -112.5t109 -73t140.5 -26q76 0 140 26t109.5 73.5t71 113.5t25.5 146zM701 345q0 -78 -23 -138t-63.5 -101t-95.5 -62t-119 -21t-119 21t-95.5 62
t-64 101t-23.5 138t23 138t63.5 101t95.5 62t120 21q63 0 118 -21t95.5 -62t64 -101t23.5 -138zM545 422q0 57 -38 89.5t-103 32.5h-113v-394h67v146h39q68 0 108 31.5t40 94.5zM478 420q0 -32 -21 -48.5t-58 -16.5h-41v129h43q37 0 57 -16.5t20 -47.5z" />
    <glyph glyph-name="endash" unicode="&#x2013;" horiz-adv-x="454" 
d="M400 242v84h-346v-84h346z" />
    <glyph glyph-name="emdash" unicode="&#x2014;" horiz-adv-x="908" 
d="M854 243v82h-800v-82h800z" />
    <glyph glyph-name="quoteleft" unicode="&#x2018;" horiz-adv-x="227" 
d="M175 686l-50 12l-82 -233h103z" />
    <glyph glyph-name="quoteright" unicode="&#x2019;" horiz-adv-x="227" 
d="M184 690h-103l-29 -221l50 -12z" />
    <glyph glyph-name="quotesinglbase" unicode="&#x201a;" horiz-adv-x="227" 
d="M177 119h-103l-29 -221l50 -12z" />
    <glyph glyph-name="quotedblleft" unicode="&#x201c;" horiz-adv-x="409" 
d="M175 686l-50 12l-82 -233h103zM357 686l-50 12l-82 -233h103z" />
    <glyph glyph-name="quotedblright" unicode="&#x201d;" horiz-adv-x="409" 
d="M184 690h-103l-29 -221l50 -12zM366 690h-103l-29 -221l50 -12z" />
    <glyph glyph-name="quotedblbase" unicode="&#x201e;" horiz-adv-x="409" 
d="M177 119h-103l-29 -221l50 -12zM359 119h-103l-29 -221l50 -12z" />
    <glyph glyph-name="dagger" unicode="&#x2020;" horiz-adv-x="499" 
d="M289 611v79h-78v-79l21 -135h35zM454 399v76h-29l-135 -22v-33l135 -21h29zM210 420v33l-136 22h-29v-76h29zM286 17v262l-19 119h-35l-19 -119v-262l21 -131h31z" />
    <glyph glyph-name="daggerdbl" unicode="&#x2021;" horiz-adv-x="518" 
d="M298 611v79h-78v-79l22 -135h34zM463 399v76h-29l-135 -22v-33l135 -21h29zM219 420v33l-135 22h-30v-76h30zM295 230v49l-19 119h-34l-20 -119v-49l20 -119h34zM463 34v76h-29l-135 -22v-33l135 -21h29zM219 55v33l-135 22h-30v-76h30zM298 -182v79l-22 136h-34
l-22 -136v-79h78z" />
    <glyph glyph-name="bullet" unicode="&#x2022;" horiz-adv-x="421" 
d="M343 345l-19 124l-113 17l-113 -17l-20 -124l20 -123l113 -18l113 18z" />
    <glyph glyph-name="ellipsis" unicode="&#x2026;" horiz-adv-x="726" 
d="M654 0v119h-100v-119h100zM413 0v119h-100v-119h100zM173 0v119h-100v-119h100z" />
    <glyph glyph-name="perthousand" unicode="&#x2030;" horiz-adv-x="799" 
d="M745 346q0 80 -25 145.5t-70.5 112.5t-109 73t-140.5 26t-140.5 -26t-109 -73.5t-71 -113.5t-25.5 -146t25 -145.5t70.5 -112.5t109 -73t140.5 -26q76 0 140 26t109.5 73.5t71 113.5t25.5 146zM701 345q0 -78 -23 -138t-63.5 -101t-95.5 -62t-119 -21t-119 21t-95.5 62
t-64 101t-23.5 138t23 138t63.5 101t95.5 62t120 21q63 0 118 -21t95.5 -62t64 -101t23.5 -138zM457 318q35 13 56 40.5t21 69.5q0 57 -38.5 89t-102.5 32h-115v-394h67v151h41l114 -156l71 16zM391 490q37 0 56 -17.5t19 -46.5q0 -31 -20.5 -47t-56.5 -16h-44v127h46z" />
    <glyph glyph-name="guilsinglleft" unicode="&#x2039;" horiz-adv-x="323" 
d="M278 477h-84l-159 -238l162 -244l75 16l-140 228z" />
    <glyph glyph-name="guilsinglright" unicode="&#x203a;" horiz-adv-x="323" 
d="M288 238l-162 244l-75 -16l141 -228l-147 -238h84z" />
    <glyph glyph-name="trademark" unicode="&#x2122;" horiz-adv-x="799" 
d="M744 345l-28 345h-69l-102 -258l-103 258h-71l-27 -345h58l20 240l98 -241h47l98 241l19 -240h60zM310 636l-9 54h-270v-54h108v-291h60v291h111z" />
    <glyph glyph-name="partialdiff" unicode="&#x2202;" horiz-adv-x="751" 
d="M704 75l-71 54q28 45 42.5 99.5t14.5 117.5q0 80 -22 145.5t-63.5 112.5t-100 73t-131.5 26t-132 -26t-100.5 -73.5t-64 -113.5t-22.5 -146t22 -145.5t63.5 -112.5t100 -73t131.5 -26q63 0 116.5 21t94.5 59l103 -81zM594 345q0 -97 -33 -161l-99 79l-111 -23l161 -120
q-27 -23 -62.5 -35t-77.5 -12q-51 0 -92 19t-69.5 54.5t-44 86t-15.5 112.5t15.5 112.5t44 86t69.5 54.5t92 19t92 -19t70 -54.5t44.5 -86t15.5 -112.5z" />
    <glyph glyph-name="product" unicode="&#x220f;" horiz-adv-x="500" 
d="M25 -200h450v1000h-450v-1000z" />
    <glyph glyph-name="summation" unicode="&#x2211;" horiz-adv-x="1019" 
d="M988 690h-98l-190 -565l-210 572l-92 -20l66 -173l-141 -379l-200 572l-92 -20l249 -680h83l145 391l149 -391h84z" />
    <glyph glyph-name="minus" unicode="&#x2212;" horiz-adv-x="500" 
d="M25 -200h450v1000h-450v-1000z" />
    <glyph glyph-name="fraction" unicode="&#x2215;" horiz-adv-x="452" 
d="M535 766l-77 18l-537 -874l77 -18z" />
    <glyph glyph-name="radical" unicode="&#x221a;" horiz-adv-x="864" 
d="M787 0v722l-89 -14v-708h89zM607 630l-13 81q-7 0 -15.5 1t-22.5 1q-32 0 -59.5 -7t-47 -23t-30.5 -40.5t-11 -60.5v-105h-72v-75h72v-402h87v402h107l-12 75h-95v96q0 33 17 47t48 14q14 0 26.5 -1t20.5 -3zM296 630l-13 81q-7 0 -15.5 1t-22.5 1q-32 0 -59 -7t-47 -23
t-31 -40.5t-11 -60.5v-105h-72v-75h72v-402h87v402h107l-11 75h-96v96q0 33 17.5 47t48.5 14q14 0 26 -1t20 -3z" />
    <glyph glyph-name="infinity" unicode="&#x221e;" horiz-adv-x="499" 
d="M431 0v334q0 80 -42 116.5t-130 36.5q-56 0 -99 -11.5t-86 -28.5l12 -77q39 17 80 29t85 12q42 0 66.5 -18t24.5 -63v-20q-75 -8 -131 -21.5t-94 -35.5t-57 -53.5t-19 -76.5q0 -61 37.5 -97t102.5 -36q59 0 99 22.5t69 51.5l10 -64h72zM342 131q-30 -31 -66.5 -49
t-75.5 -18q-34 0 -52.5 17.5t-18.5 46.5q0 18 8.5 36t32 33t65 27t107.5 18v-111z" />
    <glyph glyph-name="integral" unicode="&#x222b;" horiz-adv-x="533" 
d="M463 9v444q-47 14 -89.5 22t-96.5 8q-52 0 -95 -16t-74 -47.5t-48 -79t-17 -110.5q0 -59 15 -102t40.5 -72t59.5 -43t73 -14q49 0 84 20.5t59 44.5v-61q0 -48 -27 -78.5t-92 -30.5q-49 0 -91.5 12t-79.5 33l-13 -84q38 -17 82.5 -27t95.5 -10q56 0 96.5 13.5t66.5 38.5
t38.5 60.5t12.5 78.5zM374 156q-27 -34 -59.5 -56t-70.5 -22q-48 0 -79.5 40t-31.5 115q0 88 37.5 131t107.5 43q33 0 53 -4.5t43 -12.5v-234z" />
    <glyph glyph-name="approxequal" unicode="&#x2248;" horiz-adv-x="864" 
d="M797 631q0 23 -15.5 39t-38.5 16t-39 -16t-16 -39t16 -38.5t39 -15.5t38.5 15.5t15.5 38.5zM607 630l-13 81q-7 0 -15.5 1t-22.5 1q-32 0 -59.5 -7t-47 -23t-30.5 -40.5t-11 -60.5v-105h-72v-75h72v-402h87v402h107l-12 75h-95v96q0 33 17 47t48 14q14 0 26.5 -1t20.5 -3
zM296 630l-13 81q-7 0 -15.5 1t-22.5 1q-32 0 -59 -7t-47 -23t-31 -40.5t-11 -60.5v-105h-72v-75h72v-402h87v402h107l-11 75h-96v96q0 33 17.5 47t48.5 14q14 0 26 -1t20 -3zM787 0v477h-89v-477h89z" />
    <glyph glyph-name="notequal" unicode="&#x2260;" horiz-adv-x="514" 
d="M467 196q0 47 -15.5 81.5t-44 58t-68.5 36t-89 16.5l202 218v70h-409l13 -81h282l-193 -211l11 -67h36q87 0 135 -29.5t48 -92.5q0 -60 -38.5 -93.5t-104.5 -33.5q-53 0 -96 15t-87 45l-15 -88q36 -24 88 -38.5t105 -14.5q55 0 99 15t75.5 42.5t48.5 66t17 85.5z" />
    <glyph glyph-name="lessequal" unicode="&#x2264;" horiz-adv-x="881" 
d="M798 0v690h-114l-243 -566l-242 566h-116v-690h83v538l237 -541h71l237 541v-538h87z" />
    <glyph glyph-name="greaterequal" unicode="&#x2265;" horiz-adv-x="693" 
d="M522 77l12 -77h76v690h-94v-521q-48 -43 -99 -67.5t-108 -24.5q-72 0 -105 38.5t-33 116.5v458h-94v-471q0 -59 16 -102t45 -71t71 -41t94 -13q62 0 115.5 23.5t103.5 61.5z" />
    <glyph glyph-name="lozenge" unicode="&#x25ca;" horiz-adv-x="799" 
d="M744 345l-28 345h-69l-102 -258l-103 258h-71l-27 -345h58l20 240l98 -241h47l98 241l19 -240h60zM167 340q51 0 81.5 26.5t30.5 71.5q0 21 -5 37t-16.5 28.5t-29.5 23t-44 22.5q-32 14 -44.5 26t-12.5 32q0 16 13.5 26.5t38.5 10.5q20 0 39 -7.5t37 -19.5l10 57
q-35 21 -84 21q-50 0 -80 -25.5t-30 -67.5q0 -21 5 -36t16.5 -27t29.5 -22t44 -22q31 -14 44 -26.5t13 -34.5q0 -20 -15.5 -31.5t-39.5 -11.5t-47.5 9t-45.5 23l-7 -58q42 -25 99 -25z" />
    <glyph glyph-name="apple" unicode="&#xf8ff;" horiz-adv-x="694" 
d="M644 -200v921h-101l-29 79h-334l-30 -79h-100v-554q14 0 23 -9.5t9 -22.5q0 -14 -9 -23t-23 -9v-303h207l8 14h163l8 -14h208zM400 563h58v-14h-43v-66h38v-14h-38v-78h-15v172zM184 563h15v-79h47v79h15v-172h-15v79h-47v-79h-15v172zM460 394v16q4 -2 10 -4t10 -2
q16 0 16 22v137h16v-137q0 -36 -31 -36q-5 0 -11.5 1t-9.5 3zM523 323h8v-24l21 24h10l-18 -20l19 -26h-9l-16 20l-7 -7v-13h-8v46zM488 292h-12v-15h-8v46h21q8 0 12 -4.5t4 -9.5q0 -12 -10 -15l12 -17h-9zM426 276q-11 0 -17 7t-6 17q0 9 6 16.5t17 7.5t17.5 -7.5
t6.5 -16.5q0 -10 -6.5 -17t-17.5 -7zM370 301l13 22h9l-18 -29v-17h-8v17l-18 29h9zM193 323h33v-7h-25v-12h22v-7h-22v-13h25v-7h-33v46zM132 323h7l25 -32v32h8v-46h-7l-25 32v-32h-8v46zM241 323h8l10 -35h1l11 35h8l10 -35h1l10 35h8l-14 -47h-8l-11 34h-1l-10 -34h-8z
M327 479q15 16 15 32q0 8 -3.5 13.5t-9.5 5.5t-10 -5.5t-4 -13.5t3.5 -15zM342 423l-20 39q-15 -15 -15 -33q0 -11 4.5 -19t12.5 -8q5 0 10.5 6.5t7.5 14.5zM488 299q9 0 9 9q0 8 -10 8h-11v-17h12zM426 283q7 0 11.5 5t4.5 12q0 6 -4.5 11.5t-11.5 5.5t-11 -5.5t-4 -11.5
q0 -7 4 -12t11 -5zM349 438q2 7 4.5 15t4.5 15l13 -3q-2 -11 -5.5 -20.5t-7.5 -18.5l16 -30l-11 -8l-12 24h-1q-4 -9 -10.5 -16.5t-16.5 -7.5q-14 0 -22.5 11t-8.5 28q0 27 23 45q-6 11 -10 19.5t-4 19.5t7.5 21t20.5 10q14 0 20.5 -10t6.5 -21q0 -12 -6.5 -22.5
t-16.5 -19.5z" />
    <glyph glyph-name="fi" unicode="&#xfb01;" horiz-adv-x="554" 
d="M487 631q0 23 -16 39t-39 16t-38.5 -16t-15.5 -39t15.5 -38.5t38.5 -15.5t39 15.5t16 38.5zM296 630l-13 81q-7 0 -15.5 1t-22.5 1q-32 0 -59 -7t-47 -23t-31 -40.5t-11 -60.5v-105h-72v-75h72v-402h87v402h107l-11 75h-96v96q0 33 17.5 47t48.5 14q14 0 26 -1t20 -3z
M477 0v477h-89v-477h89z" />
    <glyph glyph-name="fl" unicode="&#xfb02;" horiz-adv-x="554" 
d="M477 0v722l-89 -14v-708h89zM296 630l-13 81q-7 0 -15.5 1t-22.5 1q-32 0 -59 -7t-47 -23t-31 -40.5t-11 -60.5v-105h-72v-75h72v-402h87v402h107l-11 75h-96v96q0 33 17.5 47t48.5 14q14 0 26 -1t20 -3z" />
    <glyph glyph-name="NUL" horiz-adv-x="0" 
 />
    </font>
</defs>
</svg>
